Зимние розы / Des Roses en Hiver (Лоренцо Габриэль / Lorenzo Gabriele) [2014, Франция, драма, комедия, HDTV 1080i] MVO

Ответить на тему
 
Автор Сообщение

user ®

Стаж: 7 лет 7 месяцев

Сообщений: 20008

Пост Пост: #1 от 20-Июл-2015 21:09

[Цитировать]

Зимние розы / Des Roses en Hiver
Страна: Франция
Жанр: драма, комедия
Год выпуска: 2014
Продолжительность: 01:25:54
Перевод: Профессиональный (многоголосый закадровый)
Cубтитры: нет
Режиссер: Лоренцо Габриэль / Lorenzo Gabriele
В ролях: Милен Демонжо, Жан-Пьер Марьель, Леа Дрюкер, Франсуа Винчентелли, Орельен Вик, Лоран Бато, Стефан Мецгер, Барбара Кабрита
Описание: 80-летний Жан страдает от неизлечимой болезни. В один прекрасный день он решает отказаться от лечения и умереть. С поддержкой жены он сообщает о своем выборе детям, которые совершенно по-разному реагируют на слова отца.
Сэмпл: http://multi-up.com/1058934
Кинопоиск: http://www.kinopoisk.ru/film/819361/

Тип релиза: HDTV 1080i
Контейнер: TS
Видео: AVC/H.264, 1920x1080 (16:9), 7343 Кбит/сек, 25.000 fps
Аудио: русский, MP2, 2ch, 48,0 КГц, 192 Кбит/сек
MediaInfo
Общее
Идентификатор : 1 (0x1)
Полное имя : C:\Users\User\Desktop\Зимние розы.ts
Формат : MPEG-TS
Размер файла : 4,76 Гбайт
Продолжительность : 1 ч. 25 м.
Режим общего битрейта : Переменный
Общий поток : 7929 Кбит/сек
Максимальный общий битрейт : 35,5 Мбит/сек
Видео
Идентификатор : 4113 (0x1011)
Идентификатор меню : 1 (0x1)
Формат : AVC
Формат/Информация : Advanced Video Codec
Профиль формата : Main@L4.0
Параметр CABAC формата : Да
Параметр ReFrames формата : 3 кадра
Идентификатор кодека : 27
Продолжительность : 1 ч. 25 м.
Вид битрейта : Переменный
Битрейт : 7343 Кбит/сек
Максимальный битрейт : 40,0 Мбит/сек
Ширина : 1920 пикселей
Высота : 1080 пикселей
Соотношение сторон : 16:9
Частота кадров : 25,000 кадров/сек
Стандарт вещания : Component
Цветовое пространство : YUV
Субдискретизация насыщенности : 4:2:0
Битовая глубина : 8 бит
Тип развёртки : Чересстрочная
Порядок развёртки : Верхнее поле первое
Бит/(Пиксели*Кадры) : 0.142
Размер потока : 4,41 Гбайт (93%)
colour_range : Limited
Аудио
Идентификатор : 4352 (0x1100)
Идентификатор меню : 1 (0x1)
Формат : MPEG Audio
Версия формата : Version 1
Профиль формата : Layer 2
Идентификатор кодека : 4
Продолжительность : 1 ч. 25 м.
Вид битрейта : Постоянный
Битрейт : 192 Кбит/сек
Каналы : 2 канала
Частота : 48,0 КГц
Метод сжатия : С потерями
Размер потока : 118 Мбайт (2%)
Язык : Russian
Скриншот с названием фильма Скриншоты
Скачать

Скачать торрент!

Как скачивать? · Что такое торрент? · Рейтинг и ограничения

Сайт не распространяет и не хранит электронные версии произведений, а лишь предоставляет доступ к создаваемому пользователями каталогу ссылок на торрент-файлы, которые содержат только списки хеш-сумм

[Профиль] [ЛС]
Показать сообщения:    
Ответить на тему

Текущее время: Сегодня 08:37

Часовой пояс: GMT + 4



Вы не можете начинать темы
Вы не можете отвечать на сообщения
Вы не можете редактировать свои сообщения
Вы не можете удалять свои сообщения
Вы не можете голосовать в опросах
Вы не можете прикреплять файлы к сообщениям
Вы не можете скачивать файлы