Дураков нет / Без дураков / Стреляный воробей / Nobody\'s Fool (Роберт Бентон / Robert Benton) [1994, США, драма, комедия, WEB-DL 720p] DVO + DVO (НТВ) + AVO (Сергей Визгунов) + Sub Eng + Original Eng

Ответить на тему
 
Автор Сообщение

user ®

Стаж: 7 лет 7 месяцев

Сообщений: 20008

Пост Пост: #1 от 20-Июл-2015 21:09

[Цитировать]

Дураков нет / Без Дураков / Стреляный воробей / Nobody's Fool
Страна: США
Жанр: драма, комедия
Год выпуска: 1994
Продолжительность: 01:50:12
Перевод 1: Профессиональный (двухголосый закадровый)
Перевод 2: Профессиональный (двухголосый закадровый) НТВ
Перевод 3: Авторский (одноголосый закадровый) Сергей Визгунов
Cубтитры: английские
Оригинальная аудиодорожка: английский
Режиссер: Роберт Бентон / Robert Benton
В ролях: Пол Ньюман, Джессика Тэнди, Брюс Уиллис, Мелани Гриффит, Дилан Уолш, Прюитт Тэйлор Винс, Джин Сэкс, Йозеф Зоммер, Филип Сеймур Хоффман, Филип Боско...
Описание: История о шестидесятилетнем добродушном старике, который никак не хочет становиться взрослым.
Доп. информация: Звуковые дорожки с раздачи [url=http://***/forum/viewtopic.php?t=4407971]Lenape[/url].
Сэмпл: http://multi-up.com/1058954
Тип релиза: WEB-DL 720p
Контейнер: MKV
Видео: 1278x720 (16:9), 23.976 fps, AVC, ~3974 Kbps, 0.180 bits/pixel
Аудио 1: Russian, 48.0 KHz, AC3, 1 ch, 128 Kbps
Аудио 2: Russian, 48.0 KHz, AC3, 2 ch, 192 Kbps - НТВ
Аудио 3: Russian, 48.0 KHz, AC3, 2 ch, 192 Kbps - Сергей Визгунов
Аудио 4: English, 48.0 KHz, AC3, 6 ch, 448 Kbps

Сравнение с DVD MediaInfo
General
Unique ID : 179577127459205034950171495685551624819 (0x87194BF530FA58DBB430D1CF3D291273)
Complete name : C:\Nobody's Fool. WEB-DL 720p.mkv
Format : Matroska
Format version : Version 4 / Version 2
File size : 3.88 GiB
Duration : 1h 50mn
Overall bit rate : 5 034 Kbps
Movie name :
Encoded date : UTC 2015-07-17 13:48:39
Writing application : mkvmerge v8.1.0 ('Psychedelic Postcard') 64bit
Writing library : libebml v1.3.1 + libmatroska v1.4.2
DURATION : 01:43:33.939000000
NUMBER_OF_FRAMES : 1841
NUMBER_OF_BYTES : 49591
_STATISTICS_WRITING_APP : mkvmerge v8.1.0 ('Psychedelic Postcard') 64bit
_STATISTICS_WRITING_DATE_UT : 2015-07-17 13:48:39
_STATISTICS_TAGS : BPS DURATION NUMBER_OF_FRAMES NUMBER_OF_BYTES
Video
ID : 1
Format : AVC
Format/Info : Advanced Video Codec
Format profile : High@L3.1
Format settings, CABAC : No
Format settings, ReFrames : 2 frames
Codec ID : V_MPEG4/ISO/AVC
Duration : 1h 50mn
Bit rate : 3 974 Kbps
Width : 1 278 pixels
Height : 720 pixels
Display aspect ratio : 16:9
Frame rate mode : Constant
Frame rate : 23.976 fps
Color space : YUV
Chroma subsampling : 4:2:0
Bit depth : 8 bits
Scan type : Progressive
Bits/(Pixel*Frame) : 0.180
Stream size : 3.06 GiB (79%)
Language : English
Default : Yes
Forced : No
Color range : Limited
Color primaries : BT.709
Transfer characteristics : BT.709
Matrix coefficients : BT.709
Audio #1
ID : 2
Format : AC-3
Format/Info : Audio Coding 3
Mode extension : CM (complete main)
Format settings, Endianness : Big
Codec ID : A_AC3
Duration : 1h 50mn
Bit rate mode : Constant
Bit rate : 128 Kbps
Channel(s) : 1 channel
Channel positions : Front: C
Sampling rate : 48.0 KHz
Compression mode : Lossy
Stream size : 101 MiB (3%)
Language : Russian
Default : Yes
Forced : No
Audio #2
ID : 3
Format : AC-3
Format/Info : Audio Coding 3
Mode extension : CM (complete main)
Format settings, Endianness : Big
Codec ID : A_AC3
Duration : 1h 50mn
Bit rate mode : Constant
Bit rate : 192 Kbps
Channel(s) : 2 channels
Channel positions : Front: L R
Sampling rate : 48.0 KHz
Compression mode : Lossy
Stream size : 151 MiB (4%)
Title : НТВ
Language : Russian
Default : No
Forced : No
Audio #3
ID : 4
Format : AC-3
Format/Info : Audio Coding 3
Mode extension : CM (complete main)
Format settings, Endianness : Big
Codec ID : A_AC3
Duration : 1h 50mn
Bit rate mode : Constant
Bit rate : 192 Kbps
Channel(s) : 2 channels
Channel positions : Front: L R
Sampling rate : 48.0 KHz
Compression mode : Lossy
Stream size : 151 MiB (4%)
Title : Сергей Визгунов
Language : Russian
Default : No
Forced : No
Audio #4
ID : 5
Format : AC-3
Format/Info : Audio Coding 3
Mode extension : CM (complete main)
Format settings, Endianness : Big
Codec ID : A_AC3
Duration : 1h 50mn
Bit rate mode : Constant
Bit rate : 448 Kbps
Channel(s) : 6 channels
Channel positions : Front: L C R, Side: L R, LFE
Sampling rate : 48.0 KHz
Compression mode : Lossy
Stream size : 353 MiB (9%)
Language : English
Default : No
Forced : No
Text
ID : 6
Format : UTF-8
Codec ID : S_TEXT/UTF8
Codec ID/Info : UTF-8 Plain Text
Language : English
Default : No
Forced : No
Menu
00:00:00.000 : en:Chapter 1
00:14:57.000 : en:Chapter 2
00:30:00.000 : en:Chapter 3
00:45:25.000 : en:Chapter 4
01:00:06.000 : en:Chapter 5
01:16:21.000 : en:Chapter 6
01:30:53.000 : en:Chapter 7
01:46:26.000 : en:Chapter 8
Скриншоты
Скачать

Скачать торрент!

Как скачивать? · Что такое торрент? · Рейтинг и ограничения

Сайт не распространяет и не хранит электронные версии произведений, а лишь предоставляет доступ к создаваемому пользователями каталогу ссылок на торрент-файлы, которые содержат только списки хеш-сумм

[Профиль] [ЛС]
Показать сообщения:    
Ответить на тему

Текущее время: Сегодня 15:53

Часовой пояс: GMT + 4



Вы не можете начинать темы
Вы не можете отвечать на сообщения
Вы не можете редактировать свои сообщения
Вы не можете удалять свои сообщения
Вы не можете голосовать в опросах
Вы не можете прикреплять файлы к сообщениям
Вы не можете скачивать файлы