Вставки / Inserts (Джон Байрам / John Byrum) [1975, Великобритания, драма, комедия, HDTV 1080i] DVO (НТВ+) + Original Eng

Ответить на тему
 
Автор Сообщение

user ®

Стаж: 7 лет 7 месяцев

Сообщений: 20008

Пост Пост: #1 от 20-Июл-2015 21:09

[Цитировать]

Вставки / Inserts- Страна: Великобритания
Студия: Film and General Productions | United Artists
Жанр: драма, комедия
Год выпуска: 1975
Продолжительность: 01:52:10-Перевод: Профессиональный (двухголосый закадровый) НТВ+ /Ольга Голованова, Михаил Тихонов/
Cубтитры: нет
Оригинальная аудиодорожка: английский-Режиссер: Джон Байрам / John Byrum
В ролях: Ричард Дрейфусс, Джессика Харпер, Боб Хоскинс, Вероника Картрайт, Стивен Дэвиc...- | Релиз: -Описание: Фильм о некогда успешном кинорежиссёре, известном как "Чудо-Парень", который после смерти друга запил, заперся в своём особняке и стал зарабатывать на жизнь производством короткометражных порнолент, снимая их у себя дома. В один прекрасный день, в особняке Чудо-Парня собирается разношерстная компания: актриса-наркоманка, актёришка, работающий в похоронном бюро и мечтающий о карьере кинозвезды, мафиози-спонсор, вкладывающий свои деньги в "творчество" Чудо-Парня, и весьма легкомысленная подружка мафиози-спонсора...-Семпл: http://sendfile.su/1138264-Тип релиза: HDTV 1080i
Контейнер: TS
Видео: 1920x1080i (16:9), 25.000 fps, AVC, ~6103 Kbps, 0.118 bits/pixel
Аудио 1: Русский, 48.0 KHz, MPEG-1 Audio layer 2, 2 ch, 192 kbps
Аудио 2: English, 48.0 KHz, MPEG-1 Audio layer 2, 2 ch, 192 kbps
MediaInfo
GeneralID : 1 (0x1)Complete name : Inserts 1975 MGMHD 1080i.rus.eng.tsFormat : MPEG-TSFile size : 5.35 GiBDuration : 1h 52mnOverall bit rate mode : VariableOverall bit rate : 6 828 KbpsMaximum Overall bit rate : 35.5 Mbps
VideoID : 4113 (0x1011)Menu ID : 1 (0x1)Format : AVCFormat/Info : Advanced Video CodecFormat profile : Main@L4Format settings, CABAC : YesFormat settings, ReFrames : 4 framesFormat settings, GOP : M=4, N=28Codec ID : 27Duration : 1h 52mnBit rate : 6 103 KbpsWidth : 1 920 pixelsHeight : 1 080 pixelsDisplay aspect ratio : 16:9Frame rate : 25.000 fpsStandard : ComponentColor space : YUVChroma subsampling : 4:2:0Bit depth : 8 bitsScan type : InterlacedScan order : Top Field FirstBits/(Pixel*Frame) : 0.118Stream size : 4.78 GiB (89%)Color range : LimitedColor primaries : BT.709Transfer characteristics : BT.709Matrix coefficients : BT.709
Audio #1ID : 4352 (0x1100)Menu ID : 1 (0x1)Format : MPEG AudioFormat version : Version 1Format profile : Layer 2Codec ID : 4Duration : 1h 52mnBit rate mode : ConstantBit rate : 192 KbpsChannel(s) : 2 channelsSampling rate : 48.0 KHzCompression mode : LossyStream size : 154 MiB (3%)Language : Russian
Audio #2ID : 4353 (0x1101)Menu ID : 1 (0x1)Format : MPEG AudioFormat version : Version 1Format profile : Layer 2Codec ID : 4Duration : 1h 52mnBit rate mode : ConstantBit rate : 192 KbpsChannel(s) : 2 channelsSampling rate : 48.0 KHzCompression mode : LossyStream size : 154 MiB (3%)Language : English
Скриншоты
Скачать

Скачать торрент!

Как скачивать? · Что такое торрент? · Рейтинг и ограничения

Сайт не распространяет и не хранит электронные версии произведений, а лишь предоставляет доступ к создаваемому пользователями каталогу ссылок на торрент-файлы, которые содержат только списки хеш-сумм

[Профиль] [ЛС]
Показать сообщения:    
Ответить на тему

Текущее время: Сегодня 19:28

Часовой пояс: GMT + 4



Вы не можете начинать темы
Вы не можете отвечать на сообщения
Вы не можете редактировать свои сообщения
Вы не можете удалять свои сообщения
Вы не можете голосовать в опросах
Вы не можете прикреплять файлы к сообщениям
Вы не можете скачивать файлы