Идеальный голос 2 / Pitch Perfect 2 (Элизабет Бэнкс / Elizabeth Banks) [2015, США, комедия, музыка, WEBRip] MVO (Причудики)

Ответить на тему
 
Автор Сообщение

user ®

Стаж: 7 лет 7 месяцев

Сообщений: 20008

Пост Пост: #1 от 20-Июл-2015 21:09

[Цитировать]

Идеальный голос 2 / Pitch Perfect 2
Страна: США
Жанр: комедия, музыка, ...
Год выпуска: 2015
Продолжительность: 01:54:38
Перевод: Любительский (многоголосый закадровый) Причудики
Cубтитры: Китайские (неотключаемые)
Оригинальная аудиодорожка: нет
Режиссер: Элизабет Бэнкс / Elizabeth Banks
В ролях: Анна Кендрик, Ребел Уилсон, Хейли Стайнфелд, Бриттани Сноу, Скайлар Эстин, Адам Дивайн, Кэти Сагал, Анна Кэмп, Бен Платт, Алексис Нэп...
Описание: Самые крутые девчонки возвращаются! Теперь у них все по-взрослому: ремиксы — моднее, каблуки — выше, юбки — короче. Но идеальный голос всегда на месте
Сэмпл
Качество видео: WEB-Rip
Формат видео: AVI
Видео: 720x400 (1.80:1), 23.976 fps, XviD build 50 ~1697 kbps avg, 0.25 bit/pixel
Аудио: 48 kHz, MPEG Layer 3, 2 ch, ~192.00 kbps avg
Формат субтитров: hardsub (неотключаемые)
MediaInfo
Pitch Perfect 2.2015.HC.WEBRiP.XviD.Rus-Pri4udiki.avi
Format : AVI
Format/Info : Audio Video Interleave
File size : 1.52 GiB
Duration : 1h 54mn
Overall bit rate : 1 899 Kbps
Writing application : VirtualDubMod 1.5.10.3 | www.virtualdub-fr.org || (build 2550/release)
Writing library : VirtualDubMod build 2550/release
Video
ID : 0
Format : MPEG-4 Visual
Format profile : Advanced Simple@L5
Format settings, BVOP : 2
Format settings, QPel : No
Format settings, GMC : No warppoints
Format settings, Matrix : Default (H.263)
Codec ID : XVID
Codec ID/Hint : XviD
Duration : 1h 54mn
Bit rate : 1 698 Kbps
Width : 720 pixels
Height : 400 pixels
Display aspect ratio : 16:9
Frame rate : 23.976 fps
Color space : YUV
Chroma subsampling : 4:2:0
Bit depth : 8 bits
Scan type : Progressive
Compression mode : Lossy
Bits/(Pixel*Frame) : 0.246
Stream size : 1.36 GiB (89%)
Writing library : XviD 1.2.1 (UTC 2008-12-04)
Audio
ID : 1
Format : MPEG Audio
Format version : Version 1
Format profile : Layer 3
Mode : Joint stereo
Mode extension : MS Stereo
Codec ID : 55
Codec ID/Hint : MP3
Duration : 1h 54mn
Bit rate mode : Constant
Bit rate : 192 Kbps
Channel(s) : 2 channels
Sampling rate : 48.0 KHz
Compression mode : Lossy
Stream size : 157 MiB (10%)
Alignment : Aligned on interleaves
Interleave, duration : 42 ms (1.00 video frame)
Interleave, preload duratio : 504 ms
Скриншот c названием фильма Скриншоты
Скачать

Скачать торрент!

Как скачивать? · Что такое торрент? · Рейтинг и ограничения

Сайт не распространяет и не хранит электронные версии произведений, а лишь предоставляет доступ к создаваемому пользователями каталогу ссылок на торрент-файлы, которые содержат только списки хеш-сумм

[Профиль] [ЛС]
Показать сообщения:    
Ответить на тему

Текущее время: Сегодня 11:52

Часовой пояс: GMT + 4



Вы не можете начинать темы
Вы не можете отвечать на сообщения
Вы не можете редактировать свои сообщения
Вы не можете удалять свои сообщения
Вы не можете голосовать в опросах
Вы не можете прикреплять файлы к сообщениям
Вы не можете скачивать файлы