Маленькие гости / Here Come the Littles (Бернар Дейрьес / Bernard Deyriès) [1985, США, Франция, Япония, мультфильм, VHSRip] MVO (Фортуна фильм)

Ответить на тему
 
Автор Сообщение

user ®

Стаж: 13 лет

Сообщений: 15041

Пост Пост: #1 от 20-Июл-2015 14:57

[Цитировать]

Маленькие гости / Here Come the Littles
Страна: США, Франция, Япония
Жанр: мультфильм
Год выпуска: 1985
Продолжительность: 01:03:50
Перевод: Профессиональный (многоголосый закадровый) Фортуна фильм
Cубтитры: нет
Режиссер: Бернар Дейрьес / Bernard Deyriès
В ролях: Джимми Кигэн
Беттина Буш
Донован Фреберг
Хэл Смит
Грегг Бергер
Патриция Паррис
Элви Мур
Роберт Дэвид Холл
Мона Маршалл
Пэт Фрэли
Описание: На этот раз отважные Малыши отправляются в путешествие в Америку! Волею судьбы их самолет терпит крушение возле огромной Статуи Свободы.
Оказывается, внутри нее есть целый город, населенный такими же, как они, человечками. Но в Волшебном городе правит сумасбродный полковник, и наши Малыши вступают с ним в схватку за город.
Доп. информация: Оцифровка лицензионной VHS (личный архив) и получение VHSRip alenavova
Эксклюзив для ***. При размещении данного релиза на других сайтах ссылка на автора alenavova обязательна.

Релиз
Сэмпл: https://yadi.sk/i/GEb3NXKJhxdcr
Качество видео: VHSRip
Формат видео: AVI
Видео: 640x480 (1.33:1), 25 fps, XviD build 50 ~1999 kbps avg, 0.26 bit/pixel
Аудио: 48 kHz, AC3 Dolby Digital, 2/0 (L,R) ch, ~192 kbps
MediaInfo
Маленькие гости - Here Come the Littles [by alenavova].avi
Format : AVI
Format/Info : Audio Video Interleave
File size : 1 005 MiB
Duration : 1h 3mn
Overall bit rate : 2 202 Kbps
Movie name : Маленькие гости - Here Come the Littles [by alenavova]
Director : by alenavova
Writing application : VirtualDubMod 1.5.10.3 | www.virtualdub-fr.org || (build 2550/release)
Copyright : Edich2
Comment : ***
Video
ID : 0
Format : MPEG-4 Visual
Format profile : Advanced Simple@L5
Format settings, BVOP : 2
Format settings, QPel : No
Format settings, GMC : No warppoints
Format settings, Matrix : Custom
Codec ID : XVID
Codec ID/Hint : XviD
Duration : 1h 3mn
Bit rate : 2 000 Kbps
Width : 640 pixels
Height : 480 pixels
Display aspect ratio : 4:3
Frame rate : 25.000 fps
Color space : YUV
Chroma subsampling : 4:2:0
Bit depth : 8 bits
Scan type : Progressive
Compression mode : Lossy
Bits/(Pixel*Frame) : 0.260
Stream size : 913 MiB (91%)
Writing library : XviD 1.2.1 (UTC 2008-12-04)
Audio
ID : 1
Format : AC-3
Format/Info : Audio Coding 3
Mode extension : CM (complete main)
Format settings, Endianness : Big
Codec ID : 2000
Duration : 1h 3mn
Bit rate mode : Constant
Bit rate : 192 Kbps
Channel(s) : 2 channels
Channel positions : Front: L R
Sampling rate : 48.0 KHz
Bit depth : 16 bits
Compression mode : Lossy
Stream size : 87.7 MiB (9%)
Alignment : Split accross interleaves
Interleave, duration : 40 ms (1.00 video frame)
Interleave, preload duration : 500 ms
Скриншоты
Скачать

Скачать торрент! Маленькие гости / Here Come the Littles (Бернар Дейрьес / Bernard Deyriès) [1985, США, Франция, Япония, мультфильм, VHSRip] MVO (Фортуна фильм)

Как скачивать? · Что такое торрент? · Рейтинг и ограничения

Сайт не распространяет и не хранит электронные версии произведений, а лишь предоставляет доступ к создаваемому пользователями каталогу ссылок на торрент-файлы, которые содержат только списки хеш-сумм

[Профиль] [ЛС]
Показать сообщения:    
Ответить на тему

Текущее время: Сегодня 20:16

Часовой пояс: GMT + 4



Вы не можете начинать темы
Вы не можете отвечать на сообщения
Вы не можете редактировать свои сообщения
Вы не можете удалять свои сообщения
Вы не можете голосовать в опросах
Вы не можете прикреплять файлы к сообщениям
Вы не можете скачивать файлы