Покровитель-2 / Роза / Rosa / Shen yong shuang xiang pao xu ji / Supercop protectors 2 (Танг Чо «Джо» Чунг Tung Cho «Joe» Cheung) [1986, Гонконг, Боевик, Комедия, VHSRip] AVO (Визгунов)

Ответить на тему
 
Автор Сообщение

user ®

Стаж: 13 лет

Сообщений: 15071

Пост Пост: #1 от 20-Июл-2015 08:45

[Цитировать]

Покровитель-2 / Роза / Rosa / Shen yong shuang xiang pao xu ji / Supercop protectors 2
Страна: Гонконг
Жанр: Боевик, Комедия
Год выпуска: 1986
Продолжительность: 01:32:01
Перевод: Авторский (одноголосый закадровый) Визгунов
Cубтитры: нет
Режиссер: Танг Чо «Джо» Чунг Tung Cho «Joe» Cheung
В ролях: Лоуэлл Лоу, Юень Бяо, Лу Хсяо-фен, Кара Хуи, Джеймс Тьен, Дик Вей
Описание: Ради женщины молодые полицейские готовы схватить всех бандитов мира! Два молодых честолюбивых выпускника полицейской академии спешат проявить свои знания в выбранной ими профессии. Они идут по следу маньяка, душащего жертвы тонкой струной.
Впрочем они успевают все: и пофлиртовать с красавицей Розой и с преступниками сразиться. Перед лицом девушки полицейские стараются вовсю и готовы сбросить цветочные горшки с верхнего этажа на головы всех китайцев, провести жаркие схватки с бандитами в холодильнике, пересчитать носом все ступеньки небоскреба, улепетывая от бандитов.
Доп. информация: Оцифровка лицензионной VHS (личный архив) и получение VHSRip alenavova
Эксклюзив для ***. При размещении данного релиза на других сайтах ссылка на автора alenavova обязательна.

Релиз
Сэмпл: https://yadi.sk/i/V0NJx-mdhxDYu
Качество видео: VHSRip
Формат видео: AVI
Видео: 704x528 (1.33:1), 25 fps, XviD build 50 ~1925 kbps avg, 0.21 bit/pixel
Аудио: 48 kHz, AC3 Dolby Digital, 2/0 (L,R) ch, ~192 kbps
MediaInfo
Покровитель-2 - Shen yong shuang xiang pao xu ji [by alenavova].avi
Format : AVI
Format/Info : Audio Video Interleave
File size : 1.37 GiB
Duration : 1h 32mn
Overall bit rate : 2 127 Kbps
Movie name : Покровитель-2 - Shen yong shuang xiang pao xu ji [by alenavova]
Director : by alenavova
Writing application : VirtualDubMod 1.5.10.3 | www.virtualdub-fr.org || (build 2550/release)
Copyright : Edich2
Comment : ***
Video
ID : 0
Format : MPEG-4 Visual
Format profile : Advanced Simple@L5
Format settings, BVOP : 1
Format settings, QPel : No
Format settings, GMC : No warppoints
Format settings, Matrix : Default (MPEG)
Codec ID : XVID
Codec ID/Hint : XviD
Duration : 1h 32mn
Bit rate : 1 926 Kbps
Width : 704 pixels
Height : 528 pixels
Display aspect ratio : 4:3
Frame rate : 25.000 fps
Color space : YUV
Chroma subsampling : 4:2:0
Bit depth : 8 bits
Scan type : Progressive
Compression mode : Lossy
Bits/(Pixel*Frame) : 0.207
Stream size : 1.24 GiB (91%)
Writing library : XviD 1.2.1 (UTC 2008-12-04)
Audio
ID : 1
Format : AC-3
Format/Info : Audio Coding 3
Mode extension : CM (complete main)
Format settings, Endianness : Big
Codec ID : 2000
Duration : 1h 32mn
Bit rate mode : Constant
Bit rate : 192 Kbps
Channel(s) : 2 channels
Channel positions : Front: L R
Sampling rate : 48.0 KHz
Bit depth : 16 bits
Compression mode : Lossy
Stream size : 126 MiB (9%)
Alignment : Split accross interleaves
Interleave, duration : 40 ms (1.00 video frame)
Interleave, preload duration : 500 ms
Скриншоты Внимательно читаем примечание от alenavova, прежде чем задавать вопросы.
Скачать

Скачать торрент! Покровитель-2 / Роза / Rosa / Shen yong shuang xiang pao xu ji / Supercop protectors 2 (Танг Чо «Джо» Чунг Tung Cho «Joe» Cheung) [1986, Гонконг, Боевик, Комедия, VHSRip] AVO (Визгунов)

Как скачивать? · Что такое торрент? · Рейтинг и ограничения

Сайт не распространяет и не хранит электронные версии произведений, а лишь предоставляет доступ к создаваемому пользователями каталогу ссылок на торрент-файлы, которые содержат только списки хеш-сумм

[Профиль] [ЛС]
Показать сообщения:    
Ответить на тему

Текущее время: Сегодня 17:13

Часовой пояс: GMT + 4



Вы не можете начинать темы
Вы не можете отвечать на сообщения
Вы не можете редактировать свои сообщения
Вы не можете удалять свои сообщения
Вы не можете голосовать в опросах
Вы не можете прикреплять файлы к сообщениям
Вы не можете скачивать файлы