Годзилла против Разрушителя / Godzilla vs. Destroyer / Gojira vs. Desutoroiâ (Такао Окавара / Takao Okawara) [1995, Япония, Фантастика, катастрофа, ужасы, кайдзю, BDRip-AVC] AVO (Александр Кашкин (Первомайский))

Ответить на тему
 
Автор Сообщение

user ®

Стаж: 13 лет

Сообщений: 15071

Пост Пост: #1 от 19-Июл-2015 23:24

[Цитировать]

Годзилла против Разрушителя / Godzilla vs. Destroyer / Gojira vs. Desutoroiâ Страна: Япония
Жанр: Фантастика, катастрофа, ужасы, кайдзю
Год выпуска: 1995
Продолжительность: 01:42:54
Перевод: Авторский (одноголосый закадровый) Александр Кашкин (Первомайский)
Cубтитры: нет
Оригинальная аудиодорожка: нет
Режиссер: Такао Окавара / Takao Okawara
В ролях: Йоко Ишино, Мегуми Одака, Такуро Тацуми
Описание: Расщепление урана в земных недрах вызвало неуправляемую цепную реакцию в теле Годзиллы, превращая его в ядерную бомбу замедленного действия, готовую взорваться в любую минуту. В это время в одной из лабораторий Токио ученые создают препарат, неверное применение которого приводит к созданию супермонстра "Разрушителя", уничтожающего все на своем пути. Единственный шанс человечества на выживание - что в чудовищной схватке титанов не будет победителя.
Доп. информация: Русский звук синхронизировал [url=http://***/forum/profile.php?mode=viewprofile&u=6578132]*Sergeant_am*[/url]. Большое ему спасибо.
Исходник Blu-Ray Disc USA 1080p
Blu ray взят отсюда.
BDInfo исходника
General
ID : 0 (0x0)
Complete name : D:\Kino_HD\Blu ray\Godzilla_Vs_Destoroyah\BDMV\STREAM\00001.m2ts
Format : BDAV
Format/Info : Blu-ray Video
File size : 20.8 GiB
Duration : 1h 42mn
Overall bit rate mode : Variable
Overall bit rate : 28.9 Mbps
Maximum Overall bit rate : 48.0 Mbps
Video
ID : 4113 (0x1011)
Menu ID : 1 (0x1)
Format : AVC
Format/Info : Advanced Video Codec
Format profile : High@L4.1
Format settings, CABAC : Yes
Format settings, ReFrames : 2 frames
Codec ID : 27
Duration : 1h 42mn
Bit rate mode : Variable
Width : 1 920 pixels
Height : 1 080 pixels
Display aspect ratio : 16:9
Frame rate : 23.976 fps
Color space : YUV
Chroma subsampling : 4:2:0
Bit depth : 8 bits
Scan type : Progressive
Audio #1
ID : 4352 (0x1100)
Menu ID : 1 (0x1)
Format : DTS
Format/Info : Digital Theater Systems
Format profile : MA / Core
Mode : 16
Format settings, Endianness : Big
Muxing mode : Stream extension
Codec ID : 134
Duration : 1h 42mn
Bit rate mode : Variable
Bit rate : Unknown / 1 509 Kbps
Channel(s) : 2 channels
Channel positions : Front: L R
Sampling rate : 48.0 KHz
Bit depth : 24 bits
Compression mode : Lossless / Lossy
Audio #2
ID : 4353 (0x1101)
Menu ID : 1 (0x1)
Format : DTS
Format/Info : Digital Theater Systems
Format profile : MA / Core
Mode : 16
Format settings, Endianness : Big
Muxing mode : Stream extension
Codec ID : 134
Duration : 1h 42mn
Bit rate mode : Variable
Bit rate : Unknown / 1 509 Kbps
Channel(s) : 2 channels
Channel positions : Front: L R
Sampling rate : 48.0 KHz
Bit depth : 24 bits
Compression mode : Lossless / Lossy
Text #1
ID : 4608 (0x1200)
Menu ID : 1 (0x1)
Format : PGS
Codec ID : 144
Delay relative to video : 5s 589ms
Text #2
ID : 4609 (0x1201)
Menu ID : 1 (0x1)
Format : PGS
Codec ID : 144
Text #3
ID : 4610 (0x1202)
Menu ID : 1 (0x1)
Format : PGS
Codec ID : 144
Сэмпл
Качество видео: BDRip-AVC
Формат видео: MKV
Видео: 1024x560 (1,85:1), 23.976 fps, AVC ~1834 kbps avg, 0.133 bit/pixel
Аудио: AC3, 48 кГц, 192 Кбит/с, Dolby Digital 2.0
MediaInfo
General
Unique ID : 193749258816051519672640360152375956256 (0x91C2BFFB20E497F4B0FF8AC9428F1320)
Complete name : D:\Годзилла и Разрушитель.(1.45).BDrip-AVC.AVO(Кашкин).mkv
Format : Matroska
Format version : Version 4 / Version 2
File size : 1.46 GiB
Duration : 1h 42mn
Overall bit rate : 2 028 Kbps
Encoded date : UTC 2015-07-16 14:01:48
Writing application : mkvmerge v6.7.0 ('Back to the Ground') 32bit built on Jan 8 2014 15:03:17
Writing library : libebml v1.3.0 + libmatroska v1.4.1
Video
ID : 1
Format : AVC
Format/Info : Advanced Video Codec
Format profile : High@L4.1
Format settings, CABAC : Yes
Format settings, ReFrames : 7 frames
Codec ID : V_MPEG4/ISO/AVC
Duration : 1h 42mn
Bit rate : 1 834 Kbps
Width : 1 024 pixels
Height : 560 pixels
Display aspect ratio : 1.85:1
Frame rate mode : Constant
Frame rate : 23.976 fps
Color space : YUV
Chroma subsampling : 4:2:0
Bit depth : 8 bits
Scan type : Progressive
Bits/(Pixel*Frame) : 0.133
Stream size : 1.29 GiB (89%)
Writing library : x264 core 146 r2538 121396c
Encoding settings : cabac=1 / ref=7 / deblock=1:-3:-3 / analyse=0x3:0x133 / me=umh / subme=9 / psy=1 / psy_rd=1.00:0.00 / mixed_ref=1 / me_range=32 / chroma_me=1 / trellis=2 / 8x8dct=1 / cqm=0 / deadzone=21,11 / fast_pskip=0 / chroma_qp_offset=-2 / threads=6 / lookahead_threads=1 / sliced_threads=0 / nr=0 / decimate=0 / interlaced=0 / bluray_compat=0 / constrained_intra=0 / bframes=10 / b_pyramid=2 / b_adapt=2 / b_bias=0 / direct=3 / weightb=1 / open_gop=0 / weightp=2 / keyint=240 / keyint_min=23 / scenecut=40 / intra_refresh=0 / rc_lookahead=40 / rc=2pass / mbtree=1 / bitrate=1834 / ratetol=1.0 / qcomp=0.70 / qpmin=0 / qpmax=69 / qpstep=4 / cplxblur=20.0 / qblur=0.5 / vbv_maxrate=50000 / vbv_bufsize=62500 / nal_hrd=none / filler=0 / ip_ratio=1.40 / aq=1:0.80
Default : Yes
Forced : No
Audio
ID : 2
Format : AC-3
Format/Info : Audio Coding 3
Mode extension : CM (complete main)
Format settings, Endianness : Big
Codec ID : A_AC3
Duration : 1h 42mn
Bit rate mode : Constant
Bit rate : 192 Kbps
Channel(s) : 2 channels
Channel positions : Front: L R
Sampling rate : 48.0 KHz
Compression mode : Lossy
Stream size : 141 MiB (9%)
Default : Yes
Forced : No
Скриншот c названием фильма Скриншоты
Скачать

Скачать торрент! Годзилла против Разрушителя / Godzilla vs. Destroyer / Gojira vs. Desutoroiâ (Такао Окавара / Takao Okawara) [1995, Япония, Фантастика, катастрофа, ужасы, кайдзю, BDRip-AVC] AVO (Александр Кашкин (Первомайский))

Как скачивать? · Что такое торрент? · Рейтинг и ограничения

Сайт не распространяет и не хранит электронные версии произведений, а лишь предоставляет доступ к создаваемому пользователями каталогу ссылок на торрент-файлы, которые содержат только списки хеш-сумм

[Профиль] [ЛС]
Показать сообщения:    
Ответить на тему

Текущее время: Сегодня 16:27

Часовой пояс: GMT + 4



Вы не можете начинать темы
Вы не можете отвечать на сообщения
Вы не можете редактировать свои сообщения
Вы не можете удалять свои сообщения
Вы не можете голосовать в опросах
Вы не можете прикреплять файлы к сообщениям
Вы не можете скачивать файлы