Легенда о герое / Легенда о Бхагате Сингхе / The Legend of Bhagat Singh (Раджкумар Сантоши / Rajkumar Santoshi) [2002, Индия, Драма, биографический, исторический, DVDRip] DVO (Арена)

Ответить на тему
 
Автор Сообщение

user ®

Стаж: 12 лет

Сообщений: 15092

Пост Пост: #1 от 19-Июл-2015 23:24

[Цитировать]

Легенда о герое / Легенда о Бхагате Сингхе / The Legend of Bhagat Singh
Страна: Индия
Жанр: Драма, биографический, исторический
Год выпуска: 2002
Продолжительность: 02:35:58
Перевод: Любительский (двухголосый закадровый) Арена
Cубтитры: нет
Режиссер: Раджкумар Сантоши / Rajkumar Santoshi
В ролях: Аджай Девган, Сушант Сингх, Д. Сантош, Акхилендра Мишра, Радж Баббар, Фарида Джалал, Амрита Рао, Мукеш Тивари, Сурендра Раджан, Саурабх Дубей, Сваруп Кумар, Арун Патвардхан, Кенетх Десаи, Ситарам Панчал, Амит Дхаван, Капил Шарма, Индрани Банерджи, Амитабх Бхаттачарджи, Шиш Кхан, Санджай Шарма, Дипак Кумар Бандху, Нирадж Шах
Описание: Фильм повествует об одном из величайших пенджабцев, сражавшихся за свободу своей страны — Бхагат Сингхе (Аджай Девган), и его смелых и патриотичных товарищей. Методом достижения своих целей они видят в радикальных методах, и приступают к действиям. В итоге эта деятельность приводит Бхагата и его друзей — Сукхдева, Раджгуру, Джатин Даса, Джай Гопала, Аджая Гхоша и других в тюрьму… Добьются ли своего молодые герои?
Доп. информация: Релиз: Кинозал
Сведение звука: oktober (Спасибо!)
Сэмпл: http://multi-up.com/1059045
Качество видео: DVDRip
Формат видео: AVI
Видео: XviD MPEG-4, 640x272 (2.35:1), 23.976 fps, 1214 kbps avg
Аудио: MPEG Layer 3, 44.100 kHz, 2/0 (L,R) ch, 128.00 kbps
MediaInfo
General
Complete name : F:\Legenda.O.Geroe.2002.DVDRip.XviD.Oktober.avi
Format : AVI
Format/Info : Audio Video Interleave
File size : 1.47 GiB
Duration : 2h 35mn
Overall bit rate : 1 352 Kbps
Writing application : VirtualDubMod 1.5.10.2 (build 2540/release)
Writing library : VirtualDubMod build 2540/release
Video
ID : 0
Format : MPEG-4 Visual
Format profile : Simple@L1
Format settings, BVOP : No
Format settings, QPel : No
Format settings, GMC : No warppoints
Format settings, Matrix : Default (H.263)
Codec ID : XVID
Codec ID/Hint : XviD
Duration : 2h 35mn
Bit rate : 1 215 Kbps
Width : 640 pixels
Height : 272 pixels
Display aspect ratio : 2.35
Frame rate : 23.976 fps
Resolution : 24 bits
Colorimetry : 4:2:0
Scan type : Progressive
Bits/(Pixel*Frame) : 0.291
Stream size : 1.32 GiB (90%)
Writing library : Lavc53.33.0
Audio
ID : 1
Format : MPEG Audio
Format version : Version 1
Format profile : Layer 3
Codec ID : 55
Codec ID/Hint : MP3
Duration : 2h 35mn
Bit rate mode : Constant
Bit rate : 128 Kbps
Channel(s) : 2 channels
Sampling rate : 44.1 KHz
Resolution : 16 bits
Stream size : 143 MiB (9%)
Alignment : Split accross interleaves
Interleave, duration : 42 ms (1.00 video frame)
Interleave, preload duration : 500 ms
Скриншоты Сравнения
[url=http://***/forum/viewtopic.php?t=1085645]http://***/forum/viewtopic.php?t=1085645[/url] => http://screenshotcomparison.com/comparison/135486/picture:0
перевод тот же.
Скачать

Скачать торрент! Легенда о герое / Легенда о Бхагате Сингхе / The Legend of Bhagat Singh (Раджкумар Сантоши / Rajkumar Santoshi) [2002, Индия, Драма, биографический, исторический, DVDRip] DVO (Арена)

Как скачивать? · Что такое торрент? · Рейтинг и ограничения

Сайт не распространяет и не хранит электронные версии произведений, а лишь предоставляет доступ к создаваемому пользователями каталогу ссылок на торрент-файлы, которые содержат только списки хеш-сумм

[Профиль] [ЛС]
Показать сообщения:    
Ответить на тему

Текущее время: Сегодня 19:45

Часовой пояс: GMT + 4



Вы не можете начинать темы
Вы не можете отвечать на сообщения
Вы не можете редактировать свои сообщения
Вы не можете удалять свои сообщения
Вы не можете голосовать в опросах
Вы не можете прикреплять файлы к сообщениям
Вы не можете скачивать файлы