Возвращение (Михаил Терещенко) [1960, киноповесть, драма, SATRip]

Ответить на тему
 
Автор Сообщение

user ®

Стаж: 7 лет 7 месяцев

Сообщений: 20008

Пост Пост: #1 от 18-Июл-2015 16:27

[Цитировать]

Возвращение Жанр: киноповесть, драма
Производство: Одесская киностудия
Год выпуска: 1960
Продолжительность: 01:18:05
Режиссёр: Михаил Терещенко
В ролях: Генрих Осташевский, Н. Богомолова, Василий Векшин, Людмила Татьянчук, Александр Гай, Всеволод Якут, Яков Павлов, Петр Вишняков, Семен Кошачевский, Вадим Бидяк
Описание: Стефан Суббота, эмигрировав в Америку, пятнадцать лет скитался в поисках заработков. Накопив денег, герой обзавелся небольшой фермой и с приходом весны приехал в родное село на Украину, где все эти годы ждала его Христина. Многое изменилось в жизни Закарпатья - и как ни любила его Христина, а ехать с ним отказалась. Стефан, решив провести в родных краях лето, устроился на временную работу, перестал сокрушаться по брошенной ферме - и, в конце концов, остался здесь навсегда...
Доп. информация: Собственный рип. За исходник спасибо a&s!
Сэмпл: http://multi-up.com/1059066
Качество видео: SATRip
Формат видео: AVI
Видео: XviD, 688x512 (4:3), 25.000 fps, 2297 kbps avg
Аудио: AC3 Dolby Digital, 48 kHz, 2/0 (L,R) ch, 192.00 kbps avg
MediaInfo
General
Complete name : F:\Vozvrashchenie_1960\Vozvrashchenie_1960.SATRip.avi
Format : AVI
Format/Info : Audio Video Interleave
File size : 1.36 GiB
Duration : 1h 18mn
Overall bit rate : 2 499 Kbps
Writing application : VirtualDubMod 1.5.10.3 | www.virtualdub-fr.org || (build 2550/release)
Writing library : VirtualDubMod build 2550/release
Video
ID : 0
Format : MPEG-4 Visual
Format profile : Advanced Simple@L5
Format settings, BVOP : 1
Format settings, QPel : No
Format settings, GMC : No warppoints
Format settings, Matrix : Default (MPEG)
Codec ID : XVID
Codec ID/Hint : XviD
Duration : 1h 18mn
Bit rate : 2 297 Kbps
Width : 688 pixels
Height : 512 pixels
Display aspect ratio : 4:3
Frame rate : 25.000 fps
Color space : YUV
Chroma subsampling : 4:2:0
Bit depth : 8 bits
Scan type : Progressive
Compression mode : Lossy
Bits/(Pixel*Frame) : 0.261
Stream size : 1.25 GiB (92%)
Writing library : XviD 73
Audio
ID : 1
Format : AC-3
Format/Info : Audio Coding 3
Mode extension : CM (complete main)
Format settings, Endianness : Big
Codec ID : 2000
Duration : 1h 18mn
Bit rate mode : Constant
Bit rate : 192 Kbps
Channel(s) : 2 channels
Channel positions : Front: L R
Sampling rate : 48.0 KHz
Compression mode : Lossy
Stream size : 107 MiB (8%)
Alignment : Split accross interleaves
Interleave, duration : 40 ms (1.00 video frame)
Interleave, preload duratio : 500 ms
Скриншот c названием фильма Скриншоты
Скачать

Скачать торрент!

Как скачивать? · Что такое торрент? · Рейтинг и ограничения

Сайт не распространяет и не хранит электронные версии произведений, а лишь предоставляет доступ к создаваемому пользователями каталогу ссылок на торрент-файлы, которые содержат только списки хеш-сумм

[Профиль] [ЛС]
Показать сообщения:    
Ответить на тему

Текущее время: Сегодня 13:38

Часовой пояс: GMT + 4



Вы не можете начинать темы
Вы не можете отвечать на сообщения
Вы не можете редактировать свои сообщения
Вы не можете удалять свои сообщения
Вы не можете голосовать в опросах
Вы не можете прикреплять файлы к сообщениям
Вы не можете скачивать файлы