Как же так: Война Керри Пэкера / Howzat! Kerry Packer\'s War (Даина Рейд / Daina Reid) [2012, Австралия, драма, HDTV 1080i] MVO

Ответить на тему
 
Автор Сообщение

user ®

Стаж: 7 лет 7 месяцев

Сообщений: 20008

Пост Пост: #1 от 18-Июл-2015 01:00

[Цитировать]

Как же так: Война Керри Пэкера / Howzat! Kerry Packer's War1-2 серия из 2 Год выпуска: 2012
Страна: Австралия
Жанр: драма
Продолжительность: 01:26:40 + 01:25:58
Перевод: Профессиональный (многоголосый закадровый)
Cубтитры: нет
Оригинальная аудиодорожка: нет
Режиссёр: Даина Рейд / Daina Reid
В ролях: Лейчи Халм, Абе Форсайт, Дамон Гамо, Брендан Коуэлл, Мэттью Ле Невез, Клэйтон Уотсон, Крэйг Холл, Ричард Дейвис, Николас Купер, Хамиш Майкл
Описание:
Фильм рассказывает о жизни известного австралийского медиа-магната, одного из самых крупных игроков в мире.
Сэмпл: http://sendfile.su/1136662
Кинопоиск: http://www.kinopoisk.ru/film/682380/

Качество: HDTV 1080i
Контейнер: TS
Видео: AVC/H.264, 1920x1080 (16:9), 6666(10500) Кбит/сек, 25.000 fps
Аудио: русский, MP2, 2ch, 48,0 КГц, 192 Кбит/сек
Субтитры: отсутствуют
MediaInfo
1 серия
Общее
Идентификатор : 1 (0x1)
Полное имя : F:\раздачи\Как же так Война Керри Пэкера(1,2 серия)\Как же так Война Керри Пэкера (01 серия).ts
Формат : MPEG-TS
Размер файла : 4,37 Гбайт
Продолжительность : 1 ч. 26 м.
Режим общего битрейта : Переменный
Общий поток : 7217 Кбит/сек
Максимальный общий битрейт : 35,5 Мбит/сек
Видео
Идентификатор : 4113 (0x1011)
Идентификатор меню : 1 (0x1)
Формат : AVC
Формат/Информация : Advanced Video Codec
Профиль формата : Main@L4.0
Параметр CABAC формата : Да
Параметр ReFrames формата : 3 кадра
Параметр GOP формата : M=4, N=32
Идентификатор кодека : 27
Продолжительность : 1 ч. 26 м.
Вид битрейта : Переменный
Битрейт : 6666 Кбит/сек
Максимальный битрейт : 40,0 Мбит/сек
Ширина : 1920 пикселей
Высота : 1080 пикселей
Соотношение сторон : 16:9
Частота кадров : 25,000 кадров/сек
Стандарт вещания : Component
Цветовое пространство : YUV
Субдискретизация насыщенности : 4:2:0
Битовая глубина : 8 бит
Тип развёртки : Чересстрочная
Порядок развёртки : Верхнее поле первое
Бит/(Пиксели*Кадры) : 0.129
Размер потока : 4,04 Гбайт (92%)
Основные цвета : BT.709
Характеристики трансфера : BT.709
Коэффициенты матрицы : BT.709
colour_range : Limited
Аудио
Идентификатор : 4352 (0x1100)
Идентификатор меню : 1 (0x1)
Формат : MPEG Audio
Версия формата : Version 1
Профиль формата : Layer 2
Идентификатор кодека : 4
Продолжительность : 1 ч. 26 м.
Вид битрейта : Постоянный
Битрейт : 192 Кбит/сек
Каналы : 2 канала
Частота : 48,0 КГц
Метод сжатия : С потерями
Задержка видео : 40 мс.
Размер потока : 119 Мбайт (3%)
Язык : Russian
2 серия
Общее
Идентификатор : 1 (0x1)
Полное имя : F:\раздачи\Как же так Война Керри Пэкера(1,2 серия)\Как же так Война Керри Пэкера (02 серия).ts
Формат : MPEG-TS
Размер файла : 5,77 Гбайт
Продолжительность : 1 ч. 25 м.
Режим общего битрейта : Постоянный
Общий поток : 11,3 Мбит/сек
Видео
Идентификатор : 256 (0x100)
Идентификатор меню : 1 (0x1)
Формат : MPEG Video
Версия формата : Version 2
Профиль формата : Main@High
Параметр BVOP формата : Нет
Параметр матрицы формата : По умолчанию
Параметр GOP формата : Variable
Идентификатор кодека : 2
Продолжительность : 1 ч. 25 м.
Вид битрейта : Переменный
Битрейт : 10,5 Мбит/сек
Максимальный битрейт : 20,0 Мбит/сек
Ширина : 1920 пикселей
Высота : 1080 пикселей
Соотношение сторон : 16:9
Частота кадров : 25,000 кадров/сек
Цветовое пространство : YUV
Субдискретизация насыщенности : 4:2:0
Битовая глубина : 8 бит
Тип развёртки : Чересстрочная
Порядок развёртки : Верхнее поле первое
Бит/(Пиксели*Кадры) : 0.203
Размер потока : 6,32 Гбайт
Основные цвета : BT.709
Характеристики трансфера : BT.709
Коэффициенты матрицы : BT.709
colour_range : Limited
Аудио
Идентификатор : 257 (0x101)
Идентификатор меню : 1 (0x1)
Формат : MPEG Audio
Версия формата : Version 1
Профиль формата : Layer 2
Идентификатор кодека : 3
Продолжительность : 1 ч. 25 м.
Вид битрейта : Постоянный
Битрейт : 192 Кбит/сек
Каналы : 2 канала
Частота : 48,0 КГц
Метод сжатия : С потерями
Размер потока : 118 Мбайт (2%)
Язык : Russian
Скриншот с названием фильма Скриншоты Добавлена 2 серия.Перекачайте торрент.
Скачать

Скачать торрент!

Как скачивать? · Что такое торрент? · Рейтинг и ограничения

Сайт не распространяет и не хранит электронные версии произведений, а лишь предоставляет доступ к создаваемому пользователями каталогу ссылок на торрент-файлы, которые содержат только списки хеш-сумм

[Профиль] [ЛС]
Показать сообщения:    
Ответить на тему

Текущее время: Сегодня 21:58

Часовой пояс: GMT + 4



Вы не можете начинать темы
Вы не можете отвечать на сообщения
Вы не можете редактировать свои сообщения
Вы не можете удалять свои сообщения
Вы не можете голосовать в опросах
Вы не можете прикреплять файлы к сообщениям
Вы не можете скачивать файлы