Денни - Летающий шезлонг / Danny Deckchair (Джефф Болсмейер / Jeff Balsmeyer) [2003, Австралия, мелодрама, комедия, HDTVRip 720p] MVO + Original Eng + Sub Eng

Ответить на тему
 
Автор Сообщение

user ®

Стаж: 7 лет 7 месяцев

Сообщений: 20008

Пост Пост: #1 от 17-Июл-2015 21:54

[Цитировать]

Денни - Летающий шезлонг / Danny Deckchair«For anyone who ever dreamed of taking off.»- Год выпуска: 2003
Страна: Австралия
Жанр: мелодрама, комедия
Рейтинг MPAA: PG-13
Продолжительность: 01:40:19
Перевод: Профессиональный (многоголосый закадровый)
Cубтитры: Английские, английские SDH [встроенные, отключаемые]
Оригинальная аудиодорожка: английский-Режиссер: Джефф Болсмейер / Jeff Balsmeyer
В ролях: Рис Иванс, Миранда Отто, Джастин Кларк, Риз Малдун, Джон Батчелор, Алан Флауер, Джули Соботта, Brian Langsworth, Steve Rassios, Мадлен Джеймс
Описание:
Денни Морган из тех, кто должен временами отрываться. Чудить, прикалываться, удивлять… Иначе ему скучно жить! Но как-то раз подобная затея заносит его слишком высоко: он оторвался в прямом смысле! На хлипком стульчике, привязанном к шарам. Лишь через день пылающей ракетой Денни рухнул прямо к дому Гленды Лейк, парковочной полицейской какого-то незнакомого городка. Придя в себя. отважный испытатель понял, что способен на большее!- -Доп. информация:
  • Английская дорожка оставлена с DVD, тк в HDTV была 384Kbps, синхронизация русской дорожки Exner, Wrnr.-Качество: HDTVRip 720p (Danny Deckchair (2003) 1080i HDTV DD5.1 MPEG2-TrollHD.ts) /Sample/
    Формат: MKV
    Видео: AVC, 1280x718 (16:9), 23.976 fps, 7042 kbps, 0.313 b/p*f
    Аудио #1: Russian, AC3, 6ch, 48kHz, 448Kbps | MVO
    Аудио #2: English, AC3, 6ch, 48kHz, 448Kbps | Original
    Субтитры #1: English, SRT, Full
    Субтитры #2: English, SRT, Full (SDH)
    x264 log
x264 [info]: frame I:225   Avg QP:17.61  size:122853
x264 [info]: frame P:7606  Avg QP:19.03  size: 63446
x264 [info]: frame B:26489 Avg QP:21.40  size: 27723
x264 [info]: consecutive B-frames:  1.4%  2.2%  5.9% 38.1% 16.4% 24.0%  3.6%  7.3%  0.4%  0.3%  0.1%  0.1%  0.0%  0.2%  0.0%  0.0%  0.0%
x264 [info]: mb I  I16..4:  6.3% 83.9%  9.8%
x264 [info]: mb P  I16..4:  0.4% 25.2%  1.2%  P16..4: 26.0% 33.4% 10.2%  0.9%  0.0%    skip: 2.6%
x264 [info]: mb B  I16..4:  0.0%  3.3%  0.1%  B16..8: 38.1% 22.7%  4.0%  direct:10.4%  skip:21.2%  L0:37.2% L1:47.6% BI:15.2%
x264 [info]: 8x8 transform intra:93.6% inter:62.4%
x264 [info]: direct mvs  spatial:100.0% temporal:0.0%
x264 [info]: coded y,uvDC,uvAC intra: 97.9% 94.5% 81.3% inter: 45.6% 38.0% 8.1%
x264 [info]: i16 v,h,dc,p: 17% 13%  8% 62%
x264 [info]: i8 v,h,dc,ddl,ddr,vr,hd,vl,hu:  8%  7%  4% 11% 15% 15% 14% 13% 13%
x264 [info]: i4 v,h,dc,ddl,ddr,vr,hd,vl,hu:  9%  6%  2%  9% 16% 18% 14% 13% 12%
x264 [info]: i8c dc,h,v,p: 45% 19% 17% 19%
x264 [info]: Weighted P-Frames: Y:5.2% UV:3.2%
x264 [info]: ref P L0: 42.2% 10.1% 20.5%  8.0%  6.7%  4.9%  4.5%  2.8%  0.3%  0.0%
x264 [info]: ref B L0: 82.1%  9.7%  3.8%  1.9%  1.3%  0.8%  0.4%
x264 [info]: ref B L1: 95.6%  4.4%
x264 [info]: kb/s:6955.61
лог последних 34320 кадров.
MediaInfo
General
Unique ID                                : 217245645160089510059121514603752471642 (0xA36FFD44BDB0886DBA38C97FB77C3C5A)
Format                                   : Matroska
Format version                           : Version 4 / Version 2
File size                                : 5.56 GiB
Duration                                 : 1h 40mn
Overall bit rate                         : 7 933 Kbps
Encoded date                             : UTC 2015-07-14 16:30:16
Writing application                      : mkvmerge v7.9.0 ('Birds') 64bit
Writing library                          : libebml v1.3.1 + libmatroska v1.4.2
Attachements                             : cover.jpg
DURATION                                 : 01:40:10.880000000
NUMBER_OF_FRAMES                         : 187840
NUMBER_OF_BYTES                          : 336609280
_STATISTICS_WRITING_APP                  : mkvmerge v7.9.0 ('Birds') 64bit
_STATISTICS_WRITING_DATE_UTC             : 2015-07-14 16:30:16
_STATISTICS_TAGS                         : BPS DURATION NUMBER_OF_FRAMES NUMBER_OF_BYTES
Video
ID                                       : 1
Format                                   : AVC
Format/Info                              : Advanced Video Codec
Format profile                           : High@L4.1
Format settings, CABAC                   : Yes
Format settings, ReFrames                : 8 frames
Codec ID                                 : V_MPEG4/ISO/AVC
Duration                                 : 1h 40mn
Bit rate                                 : 6 879 Kbps
Width                                    : 1 280 pixels
Height                                   : 718 pixels
Display aspect ratio                     : 16:9
Frame rate mode                          : Constant
Frame rate                               : 23.976 fps
Color space                              : YUV
Chroma subsampling                       : 4:2:0
Bit depth                                : 8 bits
Scan type                                : Progressive
Bits/(Pixel*Frame)                       : 0.312
Stream size                              : 4.82 GiB (87%)
Title                                    : by Wrnr
Writing library                          : x264 core 146 r2538kMod 121396c
Encoding settings                        : cabac=1 / ref=8 / deblock=1:-3:-2 / analyse=0x3:0x133 / me=umh / subme=11 / psy=1 / fade_compensate=0.00 / psy_rd=1.10:0.05 / mixed_ref=1 / me_range=32 / chroma_me=1 / trellis=2 / 8x8dct=1 / cqm=0 / deadzone=21,11 / fast_pskip=0 / chroma_qp_offset=-3 / threads=3 / lookahead_threads=1 / sliced_threads=0 / nr=0 / decimate=1 / interlaced=0 / bluray_compat=0 / constrained_intra=0 / fgo=0 / bframes=16 / b_pyramid=2 / b_adapt=2 / b_bias=0 / direct=3 / weightb=1 / open_gop=0 / weightp=2 / keyint=250 / keyint_min=23 / scenecut=40 / intra_refresh=0 / rc_lookahead=60 / rc=crf / mbtree=0 / crf=18.0000 / qcomp=0.65 / qpmin=0 / qpmax=69 / qpstep=4 / vbv_maxrate=50000 / vbv_bufsize=62500 / crf_max=0.0 / nal_hrd=none / filler=0 / ip_ratio=1.40 / pb_ratio=1.30 / aq=2:0.80
Language                                 : English
Default                                  : Yes
Forced                                   : No
DURATION                                 : 01:40:19.389000000
NUMBER_OF_FRAMES                         : 144321
NUMBER_OF_BYTES                          : 5293491477
_STATISTICS_WRITING_APP                  : mkvmerge v7.9.0 ('Birds') 64bit
_STATISTICS_WRITING_DATE_UTC             : 2015-07-14 16:30:16
_STATISTICS_TAGS                         : BPS DURATION NUMBER_OF_FRAMES NUMBER_OF_BYTES
Audio #1
ID                                       : 2
Format                                   : AC-3
Format/Info                              : Audio Coding 3
Mode extension                           : CM (complete main)
Format settings, Endianness              : Big
Codec ID                                 : A_AC3
Duration                                 : 1h 40mn
Bit rate mode                            : Constant
Bit rate                                 : 448 Kbps
Channel(s)                               : 6 channels
Channel positions                        : Front: L C R, Side: L R, LFE
Sampling rate                            : 48.0 KHz
Compression mode                         : Lossy
Stream size                              : 321 MiB (6%)
Title                                    : MVO
Language                                 : Russian
Default                                  : Yes
Forced                                   : No
Audio #2
ID                                       : 3
Format                                   : AC-3
Format/Info                              : Audio Coding 3
Mode extension                           : CM (complete main)
Format settings, Endianness              : Big
Codec ID                                 : A_AC3
Duration                                 : 1h 40mn
Bit rate mode                            : Constant
Bit rate                                 : 448 Kbps
Channel(s)                               : 6 channels
Channel positions                        : Front: L C R, Side: L R, LFE
Sampling rate                            : 48.0 KHz
Compression mode                         : Lossy
Stream size                              : 321 MiB (6%)
Title                                    : Original
Language                                 : English
Default                                  : No
Forced                                   : No
Text #1
ID                                       : 4
Format                                   : UTF-8
Codec ID                                 : S_TEXT/UTF8
Codec ID/Info                            : UTF-8 Plain Text
Title                                    : Full
Language                                 : English
Default                                  : No
Forced                                   : No
Text #2
ID                                       : 5
Format                                   : UTF-8
Codec ID                                 : S_TEXT/UTF8
Codec ID/Info                            : UTF-8 Plain Text
Title                                    : Full, SDH
Language                                 : English
Default                                  : No
Forced                                   : No
Сравнение
Source

Rip

[url=http://***/forum/viewtopic.php?t=3990566]DVDRip-AVC[/url]
Скриншоты -Релиз от группы
Скачать

Скачать торрент!

Как скачивать? · Что такое торрент? · Рейтинг и ограничения

Сайт не распространяет и не хранит электронные версии произведений, а лишь предоставляет доступ к создаваемому пользователями каталогу ссылок на торрент-файлы, которые содержат только списки хеш-сумм

[Профиль] [ЛС]
Показать сообщения:    
Ответить на тему

Текущее время: Сегодня 08:07

Часовой пояс: GMT + 4



Вы не можете начинать темы
Вы не можете отвечать на сообщения
Вы не можете редактировать свои сообщения
Вы не можете удалять свои сообщения
Вы не можете голосовать в опросах
Вы не можете прикреплять файлы к сообщениям
Вы не можете скачивать файлы