Черная дыра / The Black Hole (Гэри Нельсон / Gary Nelson) [1979, США, фантастика, боевик, приключения, семейный, HDTVRip 720p] MVO + Sub Eng + Original Eng

Ответить на тему
 
Автор Сообщение

user ®

Стаж: 7 лет 7 месяцев

Сообщений: 20008

Пост Пост: #1 от 17-Июл-2015 21:54

[Цитировать]

Черная Дыра / The Black Hole
Страна: США
Жанр: фантастика, боевик, приключения, семейный
Год выпуска: 1979
Продолжительность: 01:31:23-Перевод: Профессиональный (многоголосый закадровый)
Cубтитры: английские
Оригинальная аудиодорожка: английский-Режиссер: Гэри Нельсон / Gary Nelson-В ролях: Максимилиан Шелл, Энтони Перкинс, Роберт Форстер, Джозеф Боттомс, Иветт Мимье, Эрнест Боргнайн-Описание:
Далекое будущее.. Космический корабль «Паломино», пролетая мимо «черной дыры», обнаружил на орбите пропавший без вести 12 лет назад звездолет «Лебедь». Не смотря на угрозу быть навеки пленными чудовищным полем притяжения «дыры», экипаж «Паломино» принимает роковое решение взойти на борт межзвездного «летучего голландца» и разгадать тайну его исчезновения.
Что же увидели астронавты: корабль населен только роботами, а единственным человеком оказался доктор Хайнс Рейнхардт, гениальный, но явно сумасшедший ученый, который одержим идеей проникновения в «черную дыру» и готовый поставить на карту и свою и чужие жизни, лишь бы осуществить свою безумную мечту о прыжке в бездну.-Сэмпл: Скачать-Тип релиза: HDTV 720p
Контейнер: MKV-Видео: 1280x544 (2.35:1); 3 579 Kbps; 23.976 fps; 0.214 bpp
Аудио 1: Russian; AC3; 48.0 KHz; 6ch; 384 Kbps
Аудио 2: English; AC3; 48.0 KHz; 6ch; 448 Kbps
MediaInfo
Format : Matroska
Format version : Version 4 / Version 2
File size : 2.94 GiB
Duration : 1h 35mn
Overall bit rate : 4 413 Kbps
Encoded date : UTC 2015-07-15 18:06:45
Writing application : mkvmerge v8.1.0 ('Psychedelic Postcard') 64bit
Writing library : libebml v1.3.1 + libmatroska v1.4.2
Attachements : poster.jpg
DURATION : 01:35:16.576000000
NUMBER_OF_FRAMES : 178643
NUMBER_OF_BYTES : 274395648
_STATISTICS_WRITING_APP : mkvmerge v8.1.0 ('Psychedelic Postcard') 64bit
_STATISTICS_WRITING_DATE_UTC : 2015-07-15 18:06:45
_STATISTICS_TAGS : BPS DURATION NUMBER_OF_FRAMES NUMBER_OF_BYTES
Video
ID : 1
Format : AVC
Format/Info : Advanced Video Codec
Format profile : High@L4.1
Format settings, CABAC : Yes
Format settings, ReFrames : 12 frames
Codec ID : V_MPEG4/ISO/AVC
Duration : 1h 35mn
Bit rate : 3 579 Kbps
Width : 1 280 pixels
Height : 544 pixels
Display aspect ratio : 2.35:1
Frame rate mode : Constant
Frame rate : 23.976 fps
Color space : YUV
Chroma subsampling : 4:2:0
Bit depth : 8 bits
Scan type : Progressive
Bits/(Pixel*Frame) : 0.214
Stream size : 2.33 GiB (79%)
Writing library : x264 core 135 r2345kMod f0c1c53
Encoding settings : cabac=1 / ref=12 / deblock=1:-3:-2 / analyse=0x3:0x113 / me=tesa / subme=10 / psy=1 / fade_compensate=0.00 / psy_rd=0.84:0.00 / mixed_ref=1 / me_range=24 / chroma_me=1 / trellis=2 / 8x8dct=1 / cqm=0 / deadzone=6,4 / fast_pskip=0 / chroma_qp_offset=-2 / threads=12 / lookahead_threads=3 / sliced_threads=0 / nr=0 / decimate=0 / interlaced=0 / bluray_compat=0 / constrained_intra=0 / bframes=11 / b_pyramid=2 / b_adapt=2 / b_bias=0 / direct=3 / weightb=1 / open_gop=0 / weightp=2 / keyint=250 / keyint_min=23 / scenecut=40 / intra_refresh=0 / rc_lookahead=0 / rc=2pass / mbtree=0 / bitrate=3579 / ratetol=1.0 / qcomp=0.80 / qpmin=0 / qpmax=69 / qpstep=4 / cplxblur=20.0 / qblur=0.5 / vbv_maxrate=50000 / vbv_bufsize=62500 / nal_hrd=none / ip_ratio=1.27 / pb_ratio=1.20 / aq=1:0.80
Language : English
Default : Yes
Forced : No
Color primaries : BT.709
Matrix coefficients : BT.709
DURATION : 01:35:17.087000000
NUMBER_OF_FRAMES : 137073
NUMBER_OF_BYTES : 2557714926
_STATISTICS_WRITING_APP : mkvmerge v8.1.0 ('Psychedelic Postcard') 64bit
_STATISTICS_WRITING_DATE_UTC : 2015-07-15 18:06:45
_STATISTICS_TAGS : BPS DURATION NUMBER_OF_FRAMES NUMBER_OF_BYTES
Audio #1
ID : 2
Format : AC-3
Format/Info : Audio Coding 3
Mode extension : CM (complete main)
Format settings, Endianness : Big
Codec ID : A_AC3
Duration : 1h 35mn
Bit rate mode : Constant
Bit rate : 384 Kbps
Channel(s) : 6 channels
Channel positions : Front: L C R, Side: L R, LFE
Sampling rate : 48.0 KHz
Bit depth : 16 bits
Compression mode : Lossy
Stream size : 262 MiB (9%)
Language : Russian
Default : Yes
Forced : No
Audio #2
ID : 3
Format : AC-3
Format/Info : Audio Coding 3
Mode extension : CM (complete main)
Format settings, Endianness : Big
Codec ID : A_AC3
Duration : 1h 35mn
Bit rate mode : Constant
Bit rate : 448 Kbps
Channel(s) : 6 channels
Channel positions : Front: L C R, Side: L R, LFE
Sampling rate : 48.0 KHz
Bit depth : 16 bits
Compression mode : Lossy
Delay relative to video : 17ms
Stream size : 305 MiB (10%)
Title : en AC3
Language : English
Default : No
Forced : No
Text #1
ID : 4
Format : UTF-8
Codec ID : S_TEXT/UTF8
Codec ID/Info : UTF-8 Plain Text
Language : English
Default : No
Forced : No
Text #2
ID : 5
Format : UTF-8
Codec ID : S_TEXT/UTF8
Codec ID/Info : UTF-8 Plain Text
Language : Greek
Default : No
Forced : No
Menu
00:00:00.000 : en:00:Opening Titles
00:11:40.182 : en:01:USS Cygnus
00:22:57.751 : en:02:Pulled Aboard
00:34:56.374 : en:03:Dr. Hans Reinhardt
00:44:24.349 : en:04:The Brink of a Great Discovery
00:56:20.710 : en:05:Reinhardt's Research
01:08:47.340 : en:06:Genius or Madman
01:20:11.380 : en:07:No Escape
01:29:06.998 : en:08:Meteor Storm
01:39:18.637 : en:09:Into the Black Hole
01:41:57.635 : en:10:End Credits
Скриншоты
Скачать

Скачать торрент!

Как скачивать? · Что такое торрент? · Рейтинг и ограничения

Сайт не распространяет и не хранит электронные версии произведений, а лишь предоставляет доступ к создаваемому пользователями каталогу ссылок на торрент-файлы, которые содержат только списки хеш-сумм

[Профиль] [ЛС]
Показать сообщения:    
Ответить на тему

Текущее время: Сегодня 20:39

Часовой пояс: GMT + 4



Вы не можете начинать темы
Вы не можете отвечать на сообщения
Вы не можете редактировать свои сообщения
Вы не можете удалять свои сообщения
Вы не можете голосовать в опросах
Вы не можете прикреплять файлы к сообщениям
Вы не можете скачивать файлы