Большой Лебовски / The Big Lebowski (Джоэл Коэн / Joel Coen, Итан Коэн / Ethan Coen) [1998, США, Великобритания, комедия, криминал, BDRip 720p] Dub + 2x MVO + DVO + 7x AVO + VO + Original (Eng) + Sub (Rus, Eng)

Ответить на тему
 
Автор Сообщение

user ®

Стаж: 7 лет 7 месяцев

Сообщений: 20008

Пост Пост: #1 от 17-Июл-2015 18:48

[Цитировать]

Большой Лебовски / The Big Lebowski
Год выпуска: 1998
Страна: США, Великобритания
Жанр: комедия, криминал
Продолжительность: 01:56:56
Перевод №1: профессиональный дублированный
Перевод №2: профессиональный многоголосый закадровый (Первый канал)
Перевод №3: профессиональный многоголосый закадровый (Киномания)
Перевод №4: профессиональный двухголосый закадровый (D2Lab)
Перевод №5: авторский одноголосный закадровый (Леонид Володарский)
Перевод №6: авторский одноголосный закадровый (Андрей Гаврилов)
Перевод №7: авторский одноголосный закадровый (Василий Горчаков)
Перевод №8: авторский одноголосный закадровый (Юрий Живов)
Перевод №9: авторский одноголосный закадровый (Александр Кашкин)
Перевод №10: авторский одноголосный закадровый (Дмитрий Goblin Пучков)
Перевод №11: авторский одноголосный закадровый (Юрий Сербин)
Перевод №12: одноголосный закадровый (Эдуард Шиндяпин)
Cубтитры: русские, английские
Оригинальная аудиодорожка: английская
Оглавление: 22 англоязычные главы
Режиссёр: Джоэл Коэн /Joel Coen/, Итан Коэн /Ethan Coen/
В ролях: Джефф Бриджес /Jeff Bridges/, Джон Гудман /John Goodman/, Джулианна Мур /Julianne Moore/, Стив Бушеми /Steve Buscemi/, Дэвид Хаддлстон /David Huddleston/, Филип Сеймур Хоффман /Philip Seymour Hoffman/, Тара Рид /Tara Reid/, Бен Газзара /Ben Gazzara/, Сэм Эллиотт /Sam Elliott/, Петер Стормаре /Peter Stormare/
Описание:
Бывший хиппи Джефф Лебовски не зовёт себя Лебовски. Он зовёт себя Чувак. Но ворвавшиеся в дом негодяи макают Чувака головой в унитаз, испражняются на ковёр, требуют какие-то деньги и называют его Лебовским. Выясняется, что Чувака Лебовского перепутали с другим Лебовским, миллионером, у которого похитили жену и теперь требуют выкуп.
Чувак отправляется к миллионеру, дабы разобраться насчёт компенсации за изгаженный ковёр. Вместо этого миллионер предлагает заняться передачей выкупа негодяям, похитившим его жену. К делу подключается старый приятель Лебовского - Уолтер Собчак, ветеран Вьетнама и ревностный иудей.
Дополнительная информация:
IMDB User Rating→: 8.2/10 (468,982 votes)
Рейтинг фильма КиноПоиск.Ru→: 7.801 (68 396 голосов)
  • Перевод Первого канала родом с BD CEE. Эта же озвучка была на DVD от UPR и 20th Century Fox, с ней же фильм транслировался на канале СТС;
  • Ненормативная лексика присутствует в переводах Володарского, Пучкова и Сербина, а так же в субтитрах Мишова и Shmukler'а. В переводе D2Lab имеется одно матерное слово;
  • Перевод Леонида Володарского доступен благодаря пользователям сайта e180: Nadoelo, ilsasss, xerman13, Ochkarik1, фёдор александрович, Vladimir, luka69, dimavirovec, foxlight, ZeDOK, denis_mgn_1987, User, MyxAmoP, Kastro, uchitel538, dir, Nick, Евгений_1, Lee Ray, kondratzx, Gross1978, Skoped;
  • Перевод Юрия Сербина доступен благодаря пользователям RuTracker'а: elena, Джосс, -RaMiS-, ochkarik1, arvideo, AnryV, Volshebn1k, bilbo_bagginz, glegat, Roman Lee, maximus10-99, hulahup.
    Качество: BDRip (исходник: The Big Lebowski 1998 1080p Blu-ray ITA VC-1 DTS-HD MA5.1-ADRi)
    Контейнер: MKV
    Видеопоток: 1280x694p, 23.976 fps, x264 ~11958 kbps
    Аудиопоток №1 (RUS): DD 5.1, 48 kHz, 384 kbps | дубляж
    Аудиопоток №2 (RUS): DD 2.0, 48 kHz, 640 kbps | профессиональный многоголосый закадровый (Первый канал)
    Аудиопоток №3 (RUS): DD 5.1, 48 kHz, 448 kbps | профессиональный многоголосый закадровый (Киномания)
    Аудиопоток №4 (RUS): DD 5.1, 48 kHz, 448 kbps | профессиональный двухголосый закадровый (D2Lab)
    Аудиопоток №5 (RUS): DD 5.1, 48 kHz, 640 kbps | авторский одноголосный закадровый (Леонид Володарский)
    Аудиопоток №6 (RUS): DD 5.1, 48 kHz, 640 kbps | авторский одноголосный закадровый (Андрей Гаврилов)
    Аудиопоток №7 (RUS): DD 2.0, 48 kHz, 192 kbps | авторский одноголосный закадровый (Василий Горчаков)
    Аудиопоток №8 (RUS): DD 5.1, 48 kHz, 640 kbps | авторский одноголосный закадровый (Юрий Живов)
    Аудиопоток №9 (RUS): DD 5.1, 48 kHz, 640 kbps | авторский одноголосный закадровый (Александр Кашкин)
    Аудиопоток №10 (RUS): DD 5.1, 48 kHz, 640 kbps | авторский одноголосный закадровый (Дмитрий Goblin Пучков)
    Аудиопоток №11 (RUS): DD 5.1, 48 kHz, 640 kbps | авторский одноголосный закадровый (Юрий Сербин)
    Аудиопоток №12 (RUS): DD 5.1, 48 kHz, 640 kbps | одноголосный закадровый (Эдуард Шиндяпин)
    Аудиопоток №13 (ENG): DD 5.1, 48 kHz, 640 kbps
    Субтитры №1 (RUS): SRT/UTF8 | Амальгама
    Субтитры №2 (RUS): SRT/UTF8 | D2Lab
    Субтитры №3 (RUS): SRT/UTF8 | Дмитрий Goblin Пучков
    Субтитры №4 (RUS): SRT/UTF8 | Александр Мишов
    Субтитры №5 (RUS): SRT/UTF8 | Shmukler
    Субтитры №6 (ENG): SRT/UTF8
    Сэмпл: Яндекс.Диск→, nekaka→, sendspace→
    x264 Log
1280x694p 1041:1040 @ 24000/1001 fps (cfr)
x264 [info]: using SAR=1041/1040
x264 [info]: using cpu capabilities: MMX2 SSE2Fast SSSE3 SSE4.2 AVX
x264 [info]: profile High, level 4.1
x264 [info]: frame I:1056  Avg QP:14.69  size:150632
x264 [info]: frame P:30167 Avg QP:15.64  size: 93996
x264 [info]: frame B:136983 Avg QP:17.64  size: 54691
x264 [info]: consecutive B-frames:  0.9%  1.0%  1.9% 13.7% 10.9% 51.7%  5.9%  4.0%  2.1%  5.1%  0.8%  0.5%  0.3%  0.6%  0.2%  0.1%  0.3%
x264 [info]: mb I  I16..4: 10.8% 74.5% 14.8%
x264 [info]: mb P  I16..4:  1.5% 38.2%  4.8%  P16..4: 13.1% 19.3% 15.2%  4.1%  0.3%    skip: 3.5%
x264 [info]: mb B  I16..4:  0.1% 12.3%  0.6%  B16..8: 25.3% 27.3%  9.5%  direct:14.7%  skip:10.2%  L0:39.2% L1:29.5% BI:31.3%
x264 [info]: 8x8 transform intra:90.2% inter:34.3%
x264 [info]: direct mvs  spatial:99.9% temporal:0.1%
x264 [info]: coded y,uvDC,uvAC intra: 98.2% 91.2% 78.2% inter: 66.9% 46.4% 14.6%
x264 [info]: i16 v,h,dc,p: 17%  3% 25% 56%
x264 [info]: i8 v,h,dc,ddl,ddr,vr,hd,vl,hu: 12%  9% 20%  9% 11%  9%  8% 10% 11%
x264 [info]: i4 v,h,dc,ddl,ddr,vr,hd,vl,hu: 17%  6%  8% 10% 15% 13% 11% 11% 11%
x264 [info]: i8c dc,h,v,p: 50% 21% 16% 13%
x264 [info]: Weighted P-Frames: Y:8.1% UV:4.6%
x264 [info]: ref P L0: 35.5%  8.8% 19.2%  9.6%  7.9%  6.3%  5.5%  3.6%  3.3%  0.2%  0.0%
x264 [info]: ref B L0: 68.7% 13.2%  7.2%  3.8%  3.0%  2.4%  1.3%  0.3%
x264 [info]: ref B L1: 90.7%  9.3%
x264 [info]: kb/s:11957.87
encoded 168206 frames, 0.70 fps, 11957.87 kb/s
MediaInfo
General
Unique ID                                : 185864165096523566283790124550293681985 (0x8BD422D86B476E00938A8EC608DDF741)
Complete name                            : The.Big.Lebowski.1998.720p.BDRip.x264.DD.SRT-d0ber.mkv
Format                                   : Matroska
Format version                           : Version 4 / Version 2
File size                                : 15.7 GiB
Duration                                 : 1h 56mn
Overall bit rate                         : 19.2 Mbps
Movie name                               : The Big Lebowski (1998) 720p BDRip by d0ber.maNN
Encoded date                             : UTC 2015-07-13 04:06:24
Writing application                      : mkvmerge v7.8.0 ('River Man') 64bit built on Mar 27 2015 16:31:37
Writing library                          : libebml v1.3.1 + libmatroska v1.4.2
DURATION                                 : 01:56:50.528000000
NUMBER_OF_FRAMES                         : 219079
NUMBER_OF_BYTES                          : 560842240
_STATISTICS_WRITING_APP                  : mkvmerge v7.8.0 ('River Man') 64bit built on Mar 27 2015 16:31:37
_STATISTICS_WRITING_DATE_UTC             : 2015-07-13 04:06:24
_STATISTICS_TAGS                         : BPS DURATION NUMBER_OF_FRAMES NUMBER_OF_BYTES
Video
ID                                       : 1
Format                                   : AVC
Format/Info                              : Advanced Video Codec
Format profile                           : High@L4.1
Format settings, CABAC                   : Yes
Format settings, ReFrames                : 9 frames
Codec ID                                 : V_MPEG4/ISO/AVC
Duration                                 : 1h 56mn
Bit rate                                 : 11.6 Mbps
Width                                    : 1 280 pixels
Height                                   : 694 pixels
Display aspect ratio                     : 1.85:1
Frame rate mode                          : Constant
Frame rate                               : 23.976 fps
Color space                              : YUV
Chroma subsampling                       : 4:2:0
Bit depth                                : 8 bits
Scan type                                : Progressive
Bits/(Pixel*Frame)                       : 0.543
Stream size                              : 9.45 GiB (60%)
Title                                    : 1280x694, 23.976 fps, x264 ~11958 kbps
Writing library                          : x264 core 146 r2538 121396c
Encoding settings                        : cabac=1 / ref=9 / deblock=1:-3:-3 / analyse=0x3:0x133 / me=tesa / subme=11 / psy=1 / psy_rd=1.05:0.15 / mixed_ref=1 / me_range=64 / chroma_me=1 / trellis=2 / 8x8dct=1 / cqm=0 / deadzone=21,11 / fast_pskip=0 / chroma_qp_offset=-3 / threads=6 / lookahead_threads=1 / sliced_threads=0 / nr=0 / decimate=1 / interlaced=0 / bluray_compat=0 / constrained_intra=0 / bframes=16 / b_pyramid=2 / b_adapt=2 / b_bias=0 / direct=3 / weightb=1 / open_gop=0 / weightp=2 / keyint=240 / keyint_min=23 / scenecut=40 / intra_refresh=0 / rc_lookahead=240 / rc=crf / mbtree=0 / crf=16.0 / qcomp=0.70 / qpmin=0 / qpmax=69 / qpstep=4 / vbv_maxrate=62500 / vbv_bufsize=78125 / crf_max=0.0 / nal_hrd=none / filler=0 / ip_ratio=1.40 / pb_ratio=1.30 / aq=2:1.00
Language                                 : English
Default                                  : Yes
Forced                                   : No
Audio #1
ID                                       : 2
Format                                   : AC-3
Format/Info                              : Audio Coding 3
Mode extension                           : CM (complete main)
Format settings, Endianness              : Big
Codec ID                                 : A_AC3
Duration                                 : 1h 56mn
Bit rate mode                            : Constant
Bit rate                                 : 384 Kbps
Channel(s)                               : 6 channels
Channel positions                        : Front: L C R, Side: L R, LFE
Sampling rate                            : 48.0 KHz
Bit depth                                : 16 bits
Compression mode                         : Lossy
Stream size                              : 321 MiB (2%)
Title                                    : RUS DUB DD 5.1, 48 kHz, 384 kbps
Language                                 : Russian
Default                                  : Yes
Forced                                   : No
Audio #2
ID                                       : 3
Format                                   : AC-3
Format/Info                              : Audio Coding 3
Mode extension                           : CM (complete main)
Format settings, Endianness              : Big
Codec ID                                 : A_AC3
Duration                                 : 1h 56mn
Bit rate mode                            : Constant
Bit rate                                 : 640 Kbps
Channel(s)                               : 2 channels
Channel positions                        : Front: L R
Sampling rate                            : 48.0 KHz
Bit depth                                : 16 bits
Compression mode                         : Lossy
Stream size                              : 536 MiB (3%)
Title                                    : RUS MVO Первый канал DD 2.0, 48 kHz, 640 kbps
Language                                 : Russian
Default                                  : No
Forced                                   : No
Audio #3
ID                                       : 4
Format                                   : AC-3
Format/Info                              : Audio Coding 3
Mode extension                           : CM (complete main)
Format settings, Endianness              : Big
Codec ID                                 : A_AC3
Duration                                 : 1h 56mn
Bit rate mode                            : Constant
Bit rate                                 : 448 Kbps
Channel(s)                               : 6 channels
Channel positions                        : Front: L C R, Side: L R, LFE
Sampling rate                            : 48.0 KHz
Bit depth                                : 16 bits
Compression mode                         : Lossy
Stream size                              : 375 MiB (2%)
Title                                    : RUS MVO Киномания DD 5.1, 48 kHz, 448 kbps
Language                                 : Russian
Default                                  : No
Forced                                   : No
Audio #4
ID                                       : 5
Format                                   : AC-3
Format/Info                              : Audio Coding 3
Mode extension                           : CM (complete main)
Format settings, Endianness              : Big
Codec ID                                 : A_AC3
Duration                                 : 1h 56mn
Bit rate mode                            : Constant
Bit rate                                 : 448 Kbps
Channel(s)                               : 6 channels
Channel positions                        : Front: L C R, Side: L R, LFE
Sampling rate                            : 48.0 KHz
Bit depth                                : 16 bits
Compression mode                         : Lossy
Stream size                              : 375 MiB (2%)
Title                                    : RUS DVO D2Lab DD 5.1, 48 kHz, 448 kbps
Language                                 : Russian
Default                                  : No
Forced                                   : No
Audio #5
ID                                       : 6
Format                                   : AC-3
Format/Info                              : Audio Coding 3
Mode extension                           : CM (complete main)
Format settings, Endianness              : Big
Codec ID                                 : A_AC3
Duration                                 : 1h 56mn
Bit rate mode                            : Constant
Bit rate                                 : 640 Kbps
Channel(s)                               : 6 channels
Channel positions                        : Front: L C R, Side: L R, LFE
Sampling rate                            : 48.0 KHz
Bit depth                                : 16 bits
Compression mode                         : Lossy
Stream size                              : 536 MiB (3%)
Title                                    : RUS AVO Л.Володарский DD 5.1, 48 kHz, 640 kbps
Language                                 : Russian
Default                                  : No
Forced                                   : No
Audio #6
ID                                       : 7
Format                                   : AC-3
Format/Info                              : Audio Coding 3
Mode extension                           : CM (complete main)
Format settings, Endianness              : Big
Codec ID                                 : A_AC3
Duration                                 : 1h 56mn
Bit rate mode                            : Constant
Bit rate                                 : 640 Kbps
Channel(s)                               : 6 channels
Channel positions                        : Front: L C R, Side: L R, LFE
Sampling rate                            : 48.0 KHz
Bit depth                                : 16 bits
Compression mode                         : Lossy
Stream size                              : 536 MiB (3%)
Title                                    : RUS AVO А.Гаврилов DD 5.1, 48 kHz, 640 kbps
Language                                 : Russian
Default                                  : No
Forced                                   : No
Audio #7
ID                                       : 8
Format                                   : AC-3
Format/Info                              : Audio Coding 3
Mode extension                           : CM (complete main)
Format settings, Endianness              : Big
Codec ID                                 : A_AC3
Duration                                 : 1h 56mn
Bit rate mode                            : Constant
Bit rate                                 : 192 Kbps
Channel(s)                               : 2 channels
Channel positions                        : Front: L R
Sampling rate                            : 48.0 KHz
Bit depth                                : 16 bits
Compression mode                         : Lossy
Stream size                              : 161 MiB (1%)
Title                                    : RUS AVO В.Горчаков DD 2.0, 48 kHz, 192 kbps
Language                                 : Russian
Default                                  : No
Forced                                   : No
Audio #8
ID                                       : 9
Format                                   : AC-3
Format/Info                              : Audio Coding 3
Mode extension                           : CM (complete main)
Format settings, Endianness              : Big
Codec ID                                 : A_AC3
Duration                                 : 1h 56mn
Bit rate mode                            : Constant
Bit rate                                 : 640 Kbps
Channel(s)                               : 6 channels
Channel positions                        : Front: L C R, Side: L R, LFE
Sampling rate                            : 48.0 KHz
Bit depth                                : 16 bits
Compression mode                         : Lossy
Stream size                              : 536 MiB (3%)
Title                                    : RUS AVO Ю.Живов DD 5.1, 48 kHz, 640 kbps
Language                                 : Russian
Default                                  : No
Forced                                   : No
Audio #9
ID                                       : 10
Format                                   : AC-3
Format/Info                              : Audio Coding 3
Mode extension                           : CM (complete main)
Format settings, Endianness              : Big
Codec ID                                 : A_AC3
Duration                                 : 1h 56mn
Bit rate mode                            : Constant
Bit rate                                 : 640 Kbps
Channel(s)                               : 6 channels
Channel positions                        : Front: L C R, Side: L R, LFE
Sampling rate                            : 48.0 KHz
Bit depth                                : 16 bits
Compression mode                         : Lossy
Stream size                              : 536 MiB (3%)
Title                                    : RUS AVO А.Кашкин DD 5.1, 48 kHz, 640 kbps
Language                                 : Russian
Default                                  : No
Forced                                   : No
Audio #10
ID                                       : 11
Format                                   : AC-3
Format/Info                              : Audio Coding 3
Mode extension                           : CM (complete main)
Format settings, Endianness              : Big
Codec ID                                 : A_AC3
Duration                                 : 1h 56mn
Bit rate mode                            : Constant
Bit rate                                 : 640 Kbps
Channel(s)                               : 6 channels
Channel positions                        : Front: L C R, Side: L R, LFE
Sampling rate                            : 48.0 KHz
Bit depth                                : 16 bits
Compression mode                         : Lossy
Stream size                              : 536 MiB (3%)
Title                                    : RUS AVO Д.Пучков DD 5.1, 48 kHz, 640 kbps
Language                                 : Russian
Default                                  : No
Forced                                   : No
Audio #11
ID                                       : 12
Format                                   : AC-3
Format/Info                              : Audio Coding 3
Mode extension                           : CM (complete main)
Format settings, Endianness              : Big
Codec ID                                 : A_AC3
Duration                                 : 1h 56mn
Bit rate mode                            : Constant
Bit rate                                 : 640 Kbps
Channel(s)                               : 6 channels
Channel positions                        : Front: L C R, Side: L R, LFE
Sampling rate                            : 48.0 KHz
Bit depth                                : 16 bits
Compression mode                         : Lossy
Stream size                              : 536 MiB (3%)
Title                                    : RUS AVO Ю.Сербин DD 5.1, 48 kHz, 640 kbps
Language                                 : Russian
Default                                  : No
Forced                                   : No
Audio #12
ID                                       : 13
Format                                   : AC-3
Format/Info                              : Audio Coding 3
Mode extension                           : CM (complete main)
Format settings, Endianness              : Big
Codec ID                                 : A_AC3
Duration                                 : 1h 56mn
Bit rate mode                            : Constant
Bit rate                                 : 640 Kbps
Channel(s)                               : 6 channels
Channel positions                        : Front: L C R, Side: L R, LFE
Sampling rate                            : 48.0 KHz
Bit depth                                : 16 bits
Compression mode                         : Lossy
Stream size                              : 536 MiB (3%)
Title                                    : RUS VO Э.Шиндяпин DD 5.1, 48 kHz, 640 kbps
Language                                 : Russian
Default                                  : No
Forced                                   : No
Audio #13
ID                                       : 14
Format                                   : AC-3
Format/Info                              : Audio Coding 3
Mode extension                           : CM (complete main)
Format settings, Endianness              : Big
Codec ID                                 : A_AC3
Duration                                 : 1h 56mn
Bit rate mode                            : Constant
Bit rate                                 : 640 Kbps
Channel(s)                               : 6 channels
Channel positions                        : Front: L C R, Side: L R, LFE
Sampling rate                            : 48.0 KHz
Bit depth                                : 16 bits
Compression mode                         : Lossy
Stream size                              : 536 MiB (3%)
Title                                    : ENG DD 5.1, 48 kHz, 640 kbps
Language                                 : English
Default                                  : No
Forced                                   : No
Text #1
ID                                       : 15
Format                                   : UTF-8
Codec ID                                 : S_TEXT/UTF8
Codec ID/Info                            : UTF-8 Plain Text
Title                                    : RUS Амальгама SRT
Language                                 : Russian
Default                                  : No
Forced                                   : No
Text #2
ID                                       : 16
Format                                   : UTF-8
Codec ID                                 : S_TEXT/UTF8
Codec ID/Info                            : UTF-8 Plain Text
Title                                    : RUS D2Lab SRT
Language                                 : Russian
Default                                  : No
Forced                                   : No
Text #3
ID                                       : 17
Format                                   : UTF-8
Codec ID                                 : S_TEXT/UTF8
Codec ID/Info                            : UTF-8 Plain Text
Title                                    : RUS Д.Пучков SRT
Language                                 : Russian
Default                                  : No
Forced                                   : No
Text #4
ID                                       : 18
Format                                   : UTF-8
Codec ID                                 : S_TEXT/UTF8
Codec ID/Info                            : UTF-8 Plain Text
Title                                    : RUS А.Мишов SRT
Language                                 : Russian
Default                                  : No
Forced                                   : No
Text #5
ID                                       : 19
Format                                   : UTF-8
Codec ID                                 : S_TEXT/UTF8
Codec ID/Info                            : UTF-8 Plain Text
Title                                    : RUS Shmuckler SRT
Language                                 : Russian
Default                                  : No
Forced                                   : No
Text #6
ID                                       : 20
Format                                   : UTF-8
Codec ID                                 : S_TEXT/UTF8
Codec ID/Info                            : UTF-8 Plain Text
Title                                    : ENG SRT
Language                                 : English
Default                                  : No
Forced                                   : No
Menu
00:00:00.000                             : en:Tumbling Tumbleweed
00:03:20.909                             : en:Mistaken Identity
00:05:13.104                             : en:Opening Credits
00:07:15.160                             : en:The Rug
00:09:38.119                             : en:The Other Lebowski
00:16:03.588                             : en:Over the Line
00:19:37.593                             : en:A Kidnapped Bunny
00:24:39.520                             : en:Jesus
00:29:03.784                             : en:The Ringer
00:36:54.796                             : en:Stolen Car
00:42:14.490                             : en:Maude
00:47:48.199                             : en:Bunny's Toe
00:54:10.372                             : en:A Visit From the Stranger
01:01:16.172                             : en:The Dude's Check-Up
01:06:34.991                             : en:A Stellar Performance
01:13:20.479                             : en:Smut Business
01:20:04.008                             : en:The Gutterballs
01:25:40.802                             : en:Chances of Conception
01:39:08.317                             : en:Day of Rest
01:44:04.029                             : en:Ashes to Ashes
01:48:55.738                             : en:The Dude Abides
01:52:11.767                             : en:End Credits
Скриншоты Source vs. Rip
Скачать

Скачать торрент!

Как скачивать? · Что такое торрент? · Рейтинг и ограничения

Сайт не распространяет и не хранит электронные версии произведений, а лишь предоставляет доступ к создаваемому пользователями каталогу ссылок на торрент-файлы, которые содержат только списки хеш-сумм

[Профиль] [ЛС]
Показать сообщения:    
Ответить на тему

Текущее время: Сегодня 21:57

Часовой пояс: GMT + 4



Вы не можете начинать темы
Вы не можете отвечать на сообщения
Вы не можете редактировать свои сообщения
Вы не можете удалять свои сообщения
Вы не можете голосовать в опросах
Вы не можете прикреплять файлы к сообщениям
Вы не можете скачивать файлы