Звезда романтики / The Romancing Star / Cheng Chong Chui Lui Chai (Вон Цзин / Wong Jing) [1987, Гонконг, комедия, мелодрама, DVDRip] VO (Виктор Береговых)

Ответить на тему
 
Автор Сообщение

user ®

Стаж: 13 лет

Сообщений: 15071

Пост Пост: #1 от 17-Июл-2015 09:30

[Цитировать]

Звезда романтики / The Romancing Star / Cheng Chong Chui Lui Chai
Страна: Гонконг
Жанр: комедия, мелодрама
Год выпуска: 1987
Продолжительность: 01:38:09
Перевод: Одноголосый закадровый (Виктор Береговых)
Cубтитры: нет
Режиссер: Вон Цзин / Wong Jing
В ролях: Чоу Юнь-Фат, Эрик Цан, Стэнли Фун, Мэгги Чеун, Нат Чан, Кэрол Чен, Стюарт Он, Шарла Чеун, Энтони Чан, Чарли Чо, Агнес Чеун, Филип Чан, Шин Фуй Он, Суки Кван
Описание: Фат (Чоу Юнь-Фат) работает механиком в гараже своего дяди Кена (Стэнли Фун) вместе с двумя друзьями (Нат Чан и Эрик Цан). Во время поездки в Малайзию четверка знакомится с двумя моделями (Мэгги Чеун и Агнес Чеун), которых принимают за богачек. Чтобы «соответствовать» их уровню, друзья тоже выдают себя за миллионеров, но что они будут делать, когда обман откроется?(Акира)
Сэмпл: https://www.sendspace.com/file/7wq1xd
Качество видео: DVDRip
Формат видео: AVI
Видео: XviD, 640x368 (16:9), 23.976 fps, 799 kbps avg, 0.141 bit/pixel
Аудио: AC3, 48.0 KHz, 192 Kbps, 2 channels
MediaInfo
Format : AVI
Format/Info : Audio Video Interleave
File size : 700 MiB
Duration : 1h 38mn
Overall bit rate : 997 Kbps
Writing application : VirtualDubMod 1.5.4.1 (build 2178/release)
Writing library : VirtualDubMod build 2178/release
Video
ID : 0
Format : MPEG-4 Visual
Format profile : AdvancedSimple@L5
Format settings, BVOP : Yes
Format settings, QPel : No
Format settings, GMC : No warppoints
Format settings, Matrix : Custom
Codec ID : XVID
Codec ID/Hint : XviD
Duration : 1h 38mn
Bit rate : 799 Kbps
Width : 640 pixels
Height : 368 pixels
Display aspect ratio : 16:9
Frame rate : 23.976 fps
Resolution : 24 bits
Colorimetry : 4:2:0
Scan type : Progressive
Bits/(Pixel*Frame) : 0.141
Stream size : 561 MiB (80%)
Writing library : XviD 1.2.0.dev47 (UTC 2006-11-01)
Audio
ID : 1
Format : AC-3
Format/Info : Audio Coding 3
Codec ID : 2000
Duration : 1h 38mn
Bit rate mode : Constant
Bit rate : 192 Kbps
Channel(s) : 2 channels
Channel positions : L R
Sampling rate : 48.0 KHz
Stream size : 135 MiB (19%)
Alignment : Split accross interleaves
Interleave, duration : 96 ms (2.30 video frames)
Interleave, preload duration : 96 ms
Language : Russian
Скриншот c названием фильма Скриншоты
Скачать

Скачать торрент! Звезда романтики / The Romancing Star / Cheng Chong Chui Lui Chai (Вон Цзин / Wong Jing) [1987, Гонконг, комедия, мелодрама, DVDRip] VO (Виктор Береговых)

Как скачивать? · Что такое торрент? · Рейтинг и ограничения

Сайт не распространяет и не хранит электронные версии произведений, а лишь предоставляет доступ к создаваемому пользователями каталогу ссылок на торрент-файлы, которые содержат только списки хеш-сумм

[Профиль] [ЛС]
Показать сообщения:    
Ответить на тему

Текущее время: Сегодня 18:32

Часовой пояс: GMT + 4



Вы не можете начинать темы
Вы не можете отвечать на сообщения
Вы не можете редактировать свои сообщения
Вы не можете удалять свои сообщения
Вы не можете голосовать в опросах
Вы не можете прикреплять файлы к сообщениям
Вы не можете скачивать файлы