Шахматисты / Shatranj Ke Khilari / The Chess Players (Сатьяджит Рай / Satyajit Ray) [1977, Индия, Драма, комедия, исторический, DVDRip] DVO (Инис)

Ответить на тему
 
Автор Сообщение

user ®

Стаж: 12 лет

Сообщений: 15092

Пост Пост: #1 от 16-Июл-2015 02:30

[Цитировать]

Шахматисты / Shatranj Ke Khilari / The Chess Players
Страна: Индия
Жанр: Драма, комедия, исторический
Год выпуска: 1977
Продолжительность: 01:55:22
Перевод: Профессиональный (двухголосый закадровый) Инис
Cубтитры: нет
Режиссер: Сатьяджит Рай / Satyajit Ray
В ролях: Санджив Кумар, Саид Джаффри, Шабана Азми, Фарида Джалал, Вина, Дэвид Абрахам, Виктор Банерджи, Фарук Шайх, Том Олтер, Лила Мишра
Описание: Индия, небольшое княжество Ауд, середина XIX века. Путем шантажа английские колонизаторы принуждают князя давать им огромные суммы денег, необходимые для завоевательных походов. Правитель Ауда беспрекословно подчиняется. Но когда в конце концов англичане захотели свергнуть его с трона, он решил бороться за власть и защищать самостоятельность своего государства. В результате целого ряда ошибок князь терпит поражение. Параллельно в фильме развивается другая сюжетная линия. Два обывателя одержимы игрой в шахматы. Они настолько увлечены ею, что, кажется, ничего не видят и не слышат вокруг. Но из бесед шахматистов мы косвенно узнаем об отношении жителей княжества к происходящим событиям.
Доп. информация: Исходник [url=http://***/forum/viewtopic.php?t=5038479]DVD-9[/url] (СПАСИБО! colt451)
Сэмпл: http://multi-up.com/1058611
Качество видео: DVDRip
Формат видео: AVI
Видео: XviD build 50, 704x528 (1.33:1), 25 fps, 1607 kbps avg
Аудио: AC3 Dolby Digital, 48 kHz, 2/0 (L,R) ch, 192 kbps
MediaInfo
General
Complete name : F:\Shahmatisty.1977.XviD.DVDRip-Dego.avi
Format : AVI
Format/Info : Audio Video Interleave
File size : 1.46 GiB
Duration : 1h 55mn
Overall bit rate : 1 810 Kbps
Writing application : VirtualDubMod 1.5.10.2 (build 2540/release)
Writing library : VirtualDubMod build 2540/release
Video
ID : 0
Format : MPEG-4 Visual
Format profile : AdvancedSimple@L5
Format settings, BVOP : Yes
Format settings, QPel : No
Format settings, GMC : No warppoints
Format settings, Matrix : Custom
Codec ID : XVID
Codec ID/Hint : XviD
Duration : 1h 55mn
Bit rate : 1 608 Kbps
Width : 704 pixels
Height : 528 pixels
Display aspect ratio : 4/3
Frame rate : 25.000 fps
Resolution : 24 bits
Colorimetry : 4:2:0
Scan type : Progressive
Bits/(Pixel*Frame) : 0.173
Stream size : 1.30 GiB (89%)
Writing library : XviD 1.2.1 (UTC 2008-12-04)
Audio
ID : 1
Format : AC-3
Format/Info : Audio Coding 3
Codec ID : 2000
Duration : 1h 55mn
Bit rate mode : Constant
Bit rate : 192 Kbps
Channel(s) : 2 channels
Channel positions : L R
Sampling rate : 48.0 KHz
Stream size : 158 MiB (11%)
Alignment : Split accross interleaves
Interleave, duration : 40 ms (1.00 video frame)
Interleave, preload duration : 500 ms
Скриншоты Сравнения
[url=http://***/forum/viewtopic.php?t=4598001]http://***/forum/viewtopic.php?t=4598001[/url] => http://screenshotcomparison.com/comparison/135179/picture:0
перевод тот же.
Скачать

Скачать торрент! Шахматисты / Shatranj Ke Khilari / The Chess Players (Сатьяджит Рай / Satyajit Ray) [1977, Индия, Драма, комедия, исторический, DVDRip] DVO (Инис)

Как скачивать? · Что такое торрент? · Рейтинг и ограничения

Сайт не распространяет и не хранит электронные версии произведений, а лишь предоставляет доступ к создаваемому пользователями каталогу ссылок на торрент-файлы, которые содержат только списки хеш-сумм

[Профиль] [ЛС]
Показать сообщения:    
Ответить на тему

Текущее время: Сегодня 07:13

Часовой пояс: GMT + 4



Вы не можете начинать темы
Вы не можете отвечать на сообщения
Вы не можете редактировать свои сообщения
Вы не можете удалять свои сообщения
Вы не можете голосовать в опросах
Вы не можете прикреплять файлы к сообщениям
Вы не можете скачивать файлы