Адмирал / Michiel de Ruyter (Роэль Рейн / Roel Reiné) [2015, Нидерланды, Боевик, биография, история, HDRip] DVO

Ответить на тему
 
Автор Сообщение

user ®

Стаж: 7 лет 7 месяцев

Сообщений: 20008

Пост Пост: #1 от 16-Июл-2015 02:30

[Цитировать]

Адмирал / Michiel de Ruyter-- Страна: Нидерланды
Жанр: Боевик, биография, история
Год выпуска: 2015
Продолжительность: 02:31:44
Перевод: Любительский (двухголосый закадровый)
Cубтитры: нет
Режиссер: Роэль Рейн / Roel Reiné
В ролях: Франк Ламерс, Барри Атсма, Рёланд Фернхут, Эгберт Ян, Вебер Тиго, Гернандт Дерек де Линт, Хайо Брюинс, Жуль Кройсет
Описание: Михил Рюйтер был одним из самых главных новаторов в боевой технике. Он стал героем голландского флота. В то время как Голландию, находившуюся на грани гражданской войны, атаковали со всех сторон, лишь один человек пытался бороться за интересы страны — Михаил Рюйтер. Но в глазах власть имущих его успехи делали его слишком популярным, и Рюйтера отправили на смертельно опасное задание…
Сэмпл / Кинопоиск
Качество видео: HDRip
Формат видео: AVI
Видео: 1240 Кбит/сек 720 x 304 (2.368) 24.000
Аудио: AC-3, 128 Кбит/сек, 2 канала, 48,0 КГц
MediaInfo
Формат : AVI
Формат/Информация : Audio Video Interleave
Размер файла : 1,46 Гбайт
Продолжительность : 2 ч. 31 м.
Общий поток : 1377 Кбит/сек
Название фильма : Адмирал.2015.L2.HDRip.1.46GB.ELEKTRI4KA.uniongang.tv
Режиссёр : Carl Gaus
Программа кодирования : VirtualDubMod 1.5.10.3 | www.virtualdub-fr.org || (build 2550/release)
Правообладатель : UNIONGANG&RUSTORRENTS
Видео
Идентификатор : 0
Формат : MPEG-4 Visual
Профиль формата : Advanced Simple@L5
Параметр BVOP формата : 2
Параметр QPel формата : Нет
Параметр GMC формата : Без точки перехода
Параметр матрицы формата : Default (MPEG)
Идентификатор кодека : XVID
Идентификатор кодека/Подсказка : XviD
Продолжительность : 2 ч. 31 м.
Битрейт : 1240 Кбит/сек
Ширина : 720 пикселей
Высота : 304 пикселя
Соотношение сторон : 2,35:1
Частота кадров : 24,000 кадра/сек
Цветовое пространство : YUV
Субдискретизация насыщенности : 4:2:0
Битовая глубина : 8 бит
Тип развёртки : Прогрессивная
Метод сжатия : С потерями
Бит/(Пиксели*Кадры) : 0.236
Размер потока : 1,32 Гбайт (90%)
Библиотека кодирования : XviD 1.2.1 (UTC 2008-12-04)
Аудио
Идентификатор : 1
Формат : AC-3
Формат/Информация : Audio Coding 3
Расширение режима : CM (complete main)
Параметр Endianness формата : Big
Идентификатор кодека : 2000
Продолжительность : 2 ч. 31 м.
Вид битрейта : Постоянный
Битрейт : 128 Кбит/сек
Каналы : 2 канала
Расположение каналов : Front: L R
Частота : 48,0 КГц
Битовая глубина : 16 бит
Метод сжатия : С потерями
Размер потока : 139 Мбайт (9%)
Выравнивание : Разделение по промежуткам
Продолжительность промежутка : 42 мс. (1,00 видеокадр)
Время предзагрузки промежутка : 500 мс.
Скриншот c названием фильма Скриншоты
Скачать

Скачать торрент!

Как скачивать? · Что такое торрент? · Рейтинг и ограничения

Сайт не распространяет и не хранит электронные версии произведений, а лишь предоставляет доступ к создаваемому пользователями каталогу ссылок на торрент-файлы, которые содержат только списки хеш-сумм

[Профиль] [ЛС]
Показать сообщения:    
Ответить на тему

Текущее время: Сегодня 14:12

Часовой пояс: GMT + 4



Вы не можете начинать темы
Вы не можете отвечать на сообщения
Вы не можете редактировать свои сообщения
Вы не можете удалять свои сообщения
Вы не можете голосовать в опросах
Вы не можете прикреплять файлы к сообщениям
Вы не можете скачивать файлы