Хроники Ягию 5: Спасение Джубея / Yagyu Chronicles 5 - Jibei\'s Redemption (Кокити Утидэ / Kokichi Uchide) [1963, Япония, боевик, DVDRip] VO (neko64)

Ответить на тему
 
Автор Сообщение

user ®

Стаж: 13 лет

Сообщений: 15071

Пост Пост: #1 от 14-Июл-2015 19:33

[Цитировать]

Хроники Ягию 5: Спасение Джубея / Yagyu Chronicles 5 - Jibei's Redemption
Страна: Япония
Жанр: боевик
Год выпуска: 1963
Продолжительность: 01:24:38
Перевод: Одноголосый закадровый - neko64
Cубтитры: английские (неотключаемые)

Режиссер: Кокити Утидэ / Kokichi Uchide
В ролях: Коноэ Джуширо, Матцуката Хироки, Араи Шигеко
Описание: Джубей из Ягию должен доказать невиновность своей семьи, которая подозревается в организации заговора в убийстве сёгуна.
Качество видео: [url=http://***/forum/viewtopic.php?t=4689057]DVDRip[/url]
Формат видео: AVI
Видео: 704x320 (2.20:1), 29.970 fps, XviD build 73 ~2195 kbps avg, 0.33 bit/pixel
Аудио: 48 kHz, AC3 Dolby Digital, 2/0 (L,R) ch, ~256 kbps


MediaInfo
Общее
Полное имя : H:\Yagyu.Chronicles.5_Jibei's.Redemption.1963.dvdrip_[1.46]_[teko].avi
Формат : AVI
Формат/Информация : Audio Video Interleave
Размер файла : 1,46 Гбайт
Продолжительность : 1 ч. 24 м.
Общий поток : 2463 Кбит/сек
Программа кодирования : VirtualDubMod 1.5.10.3 | www.virtualdub-fr.org || (build 2550/release)
Библиотека кодирования : VirtualDubMod build 2550/release
Видео
Идентификатор : 0
Формат : MPEG-4 Visual
Профиль формата : Advanced Simple@L5
Параметр BVOP формата : 1
Параметр QPel формата : Нет
Параметр GMC формата : Без точки перехода
Параметр матрицы формата : Выборочная
Идентификатор кодека : XVID
Идентификатор кодека/Подсказка : XviD
Продолжительность : 1 ч. 24 м.
Битрейт : 2196 Кбит/сек
Ширина : 704 пикселя
Высота : 320 пикселей
Соотношение сторон : 2,2:1
Частота кадров : 29,970 кадров/сек
Цветовое пространство : YUV
Субдискретизация насыщенности : 4:2:0
Битовая глубина : 8 бит
Тип развёртки : Прогрессивная
Метод сжатия : С потерями
Бит/(Пиксели*Кадры) : 0.325
Размер потока : 1,30 Гбайт (89%)
Библиотека кодирования : XviD 73
Аудио
Идентификатор : 1
Формат : AC-3
Формат/Информация : Audio Coding 3
Расширение режима : CM (complete main)
Параметр Endianness формата : Big
Идентификатор кодека : 2000
Продолжительность : 1 ч. 24 м.
Вид битрейта : Постоянный
Битрейт : 256 Кбит/сек
Каналы : 2 канала
Расположение каналов : Front: L R
Частота : 48,0 КГц
Битовая глубина : 16 бит
Метод сжатия : С потерями
Размер потока : 155 Мбайт (10%)
Выравнивание : Разделение по промежуткам
Продолжительность промежутка : 33 мс. (1,00 видеокадр)
Время предзагрузки промежутка : 500 мс.
Скриншоты Релиз группы:
[url=http://***/forum/viewtopic.php?t=1677970] [/url]
--
Скачать

Скачать торрент! Хроники Ягию 5: Спасение Джубея / Yagyu Chronicles 5 - Jibei\'s Redemption (Кокити Утидэ / Kokichi Uchide) [1963, Япония, боевик, DVDRip] VO (neko64)

Как скачивать? · Что такое торрент? · Рейтинг и ограничения

Сайт не распространяет и не хранит электронные версии произведений, а лишь предоставляет доступ к создаваемому пользователями каталогу ссылок на торрент-файлы, которые содержат только списки хеш-сумм

[Профиль] [ЛС]
Показать сообщения:    
Ответить на тему

Текущее время: Сегодня 16:36

Часовой пояс: GMT + 4



Вы не можете начинать темы
Вы не можете отвечать на сообщения
Вы не можете редактировать свои сообщения
Вы не можете удалять свои сообщения
Вы не можете голосовать в опросах
Вы не можете прикреплять файлы к сообщениям
Вы не можете скачивать файлы