Стой! Или моя мама будет стрелять / Stop! Or My Mom Will Shoot (Роджер Споттисвуд / Roger Spottiswoode) [1992, США, комедия, боевик, BDRip 720p] DVO (Премьер Видео) + DVO (R5) + MVO + AVO (А.Михалёв) + Sub (Rus, Eng) + Original Eng

Ответить на тему
 
Автор Сообщение

user ®

Стаж: 7 лет 7 месяцев

Сообщений: 20008

Пост Пост: #1 от 14-Июл-2015 19:33

[Цитировать]

Стой! Или моя мама будет стрелять / Stop! Or My Mom Will Shoot
«Detective Joe Bomowski's mom is in town for a visit. She did the laundry, washed the windows and scrubbed the floors. Now, she's gonna clean up the streets»
- & - Страна: США
Студия: Universal Pictures, Northern Lights Entertainment
Жанр: комедия, боевик
Год выпуска: 1992
Продолжительность: 01:27:16
Перевод: Профессиональный (двухголосый закадровый) Премьер Видео
+ Профессиональный (двухголосый закадровый) R5 Universal Pictures, OPT, CTC
+ Профессиональный (многоголосый закадровый)
+ Авторский (одноголосый закадровый) А.Михалёв
Cубтитры: RUS (Full), ENG (Full)
Оригинальная аудиодорожка: English
Навигация по главам: присутствует - 7 глав-Режиссер:
Роджер Споттисвуд / Roger Spottiswoode-В ролях:
Сильвестр Сталлоне (Joe Bomowski), Эстель Гетти (Tutti), ДжоБет Уильямс (Gwen Harper), Роджер Рис (Parnell), Мартин Ферреро (Paulie), Гэйлард Сартэйн (Munroe), Джон Уэсли (Tony).-Описание:
У сержанта полиции Лос-Анджелеса Джо Борновски жизнь перевернулась вверх дном после того, как его милая мамаша Тутти решила навестить любимого сыночка. К огромной радости подружки и непосредственного начальника Джо, лейтенанта Гвен Харпер, Тутти сразу приводит в порядок его холостяцкую берлогу и начинает налаживать «хозяйство». Как вы прекрасно понимаете, бравый сержант не в восторге от всех этих нововведений. А тут еще, в дополнение ко всем проблемам, неугомонная Тутти оказывается свидетельницей убийства и требует... чтобы сын позволил ей участвовать в расследовании! В итоге Джо получает нового напарника - собственную мамулю, которая решает задать преступникам солидную трепку!-Download Sample-Тип релиза: [url=http://***/forum/viewtopic.php?t=5017012]BD[/url]-Rip 720p | thx: ☞ порошков
Контейнер: MKV-Видео: 1 280x694 at 23.976 fps, x264 @ L4.1, crf, ~6569 kbps avg
Аудио#1: 48.0 kHz, AC3 Dolby Digital, 2/0 (L,R) ch, ~192.00 kbps | Премьер Видео
Аудио#2: 48.0 kHz, AC3 Dolby Digital, 2/0 (L,R) ch, ~192.00 kbps | R5 Universal Pictures, OPT, CTC
Аудио#3: 48.0 kHz, AC3 Dolby Digital, 3/2 (L,C,R,l,r) + LFE ch, ~448 kbps |
Аудио#4: 48.0 kHz, AC3 Dolby Digital, 3/2 (L,C,R,l,r) + LFE ch, ~448 kbps | А.Михалёв
Аудио#5: 48.0 kHz, AC3 Dolby Digital, 3/2 (L,C,R,l,r) + LFE ch, ~448 kbps | Original
Формат субтитров: softsub (SRT*)

MI
Общее
Уникальный идентификатор : 224840148779395275660667965326119125217 (0xA926A334BCFE0FD2A805A7E0E84BC0E1)
Полное имя : D:\Фильмы\Stop! Or My Mom Will Shoot.1992. BD-Rip.BluRay.720р.4xRus.Eng.mkv
Формат : Matroska
Версия формата : Version 4 / Version 2
Размер файла : 5,16 Гбайт
Продолжительность : 1 ч. 27 м.
Общий поток : 8465 Кбит/сек
Дата кодирования : UTC 2015-07-13 09:26:07
Программа кодирования : mkvmerge v6.1.0 ('Old Devil') built on Mar 4 2013 09:10:42
Библиотека кодирования : libebml v1.3.0 + libmatroska v1.4.0
Attachment : Yes
Видео
Идентификатор : 1
Формат : AVC
Формат/Информация : Advanced Video Codec
Профиль формата : High@L4.1
Параметр CABAC формата : Да
Параметр ReFrames формата : 8 кадров
Идентификатор кодека : V_MPEG4/ISO/AVC
Продолжительность : 1 ч. 27 м.
Битрейт : 6569 Кбит/сек
Ширина : 1280 пикселей
Высота : 694 пикселя
Соотношение сторон : 1,85:1
Режим частоты кадров : Постоянный
Частота кадров : 23,976 кадра/сек
Цветовое пространство : YUV
Субдискретизация насыщенности : 4:2:0
Битовая глубина : 8 бит
Тип развёртки : Прогрессивная
Бит/(Пиксели*Кадры) : 0.308
Размер потока : 4,00 Гбайт (78%)
Заголовок : Стой! Или моя мама будет стрелять / Stop! Or My Mom Will Shoot 1992 720р Rip by ☞ [B.A.T.U.S.A.Y.]
Библиотека кодирования : x264 core 146 r2538kMod 121396c
Настройки программы : cabac=1 / ref=8 / deblock=1:-2:-2 / analyse=0x3:0x113 / me=umh / subme=11 / psy=1 / fade_compensate=0.00 / psy_rd=1.10:0.15 / mixed_ref=1 / me_range=48 / chroma_me=1 / trellis=2 / 8x8dct=1 / cqm=0 / deadzone=21,11 / fast_pskip=0 / chroma_qp_offset=-3 / threads=6 / lookahead_threads=1 / sliced_threads=0 / nr=0 / decimate=1 / interlaced=0 / bluray_compat=0 / constrained_intra=0 / fgo=0 / bframes=13 / b_pyramid=2 / b_adapt=2 / b_bias=0 / direct=3 / weightb=1 / open_gop=0 / weightp=2 / keyint=230 / keyint_min=23 / scenecut=40 / intra_refresh=0 / rc_lookahead=60 / rc=crf / mbtree=0 / crf=16.8850 / qcomp=0.60 / qpmin=0 / qpmax=69 / qpstep=4 / vbv_maxrate=50000 / vbv_bufsize=62500 / crf_max=0.0 / nal_hrd=none / filler=0 / ip_ratio=1.25 / pb_ratio=1.15 / aq=2:0.75
Язык : English
Default : Нет
Forced : Нет
Аудио #1
Идентификатор : 2
Формат : AC-3
Формат/Информация : Audio Coding 3
Профиль формата : Dolby Digital
Расширение режима : CM (complete main)
Параметр Endianness формата : Big
Идентификатор кодека : A_AC3
Продолжительность : 1 ч. 27 м.
Вид битрейта : Постоянный
Битрейт : 192 Кбит/сек
Каналы : 2 канала
Расположение каналов : Front: L R
Частота : 48,0 КГц
Битовая глубина : 16 бит
Метод сжатия : С потерями
Размер потока : 120 Мбайт (2%)
Заголовок : АС3 2.0 @ 192 kbps - DVO, Prime Video
Язык : Russian
Default : Нет
Forced : Нет
Аудио #2
Идентификатор : 3
Формат : AC-3
Формат/Информация : Audio Coding 3
Профиль формата : Dolby Digital
Расширение режима : CM (complete main)
Параметр Endianness формата : Big
Идентификатор кодека : A_AC3
Продолжительность : 1 ч. 27 м.
Вид битрейта : Постоянный
Битрейт : 192 Кбит/сек
Каналы : 2 канала
Расположение каналов : Front: L R
Частота : 48,0 КГц
Битовая глубина : 16 бит
Метод сжатия : С потерями
Размер потока : 120 Мбайт (2%)
Заголовок : АС3 2.0 @ 192 kbps - DVO, R5 Universal Pictures - ORT - STS
Язык : Russian
Default : Да
Forced : Нет
Аудио #3
Идентификатор : 4
Формат : AC-3
Формат/Информация : Audio Coding 3
Расширение режима : CM (complete main)
Параметр Endianness формата : Big
Идентификатор кодека : A_AC3
Продолжительность : 1 ч. 27 м.
Вид битрейта : Постоянный
Битрейт : 448 Кбит/сек
Каналы : 6 каналов
Расположение каналов : Front: L C R, Side: L R, LFE
Частота : 48,0 КГц
Битовая глубина : 16 бит
Метод сжатия : С потерями
Размер потока : 280 Мбайт (5%)
Заголовок : АС3 5.1 @ 448 kbps - MVO
Язык : Russian
Default : Нет
Forced : Нет
Аудио #4
Идентификатор : 5
Формат : AC-3
Формат/Информация : Audio Coding 3
Расширение режима : CM (complete main)
Параметр Endianness формата : Big
Идентификатор кодека : A_AC3
Продолжительность : 1 ч. 27 м.
Вид битрейта : Постоянный
Битрейт : 448 Кбит/сек
Каналы : 6 каналов
Расположение каналов : Front: L C R, Side: L R, LFE
Частота : 48,0 КГц
Битовая глубина : 16 бит
Метод сжатия : С потерями
Размер потока : 280 Мбайт (5%)
Заголовок : АС3 5.1 @ 448 kbps - AVO
Язык : Russian
Default : Нет
Forced : Нет
Аудио #5
Идентификатор : 6
Формат : AC-3
Формат/Информация : Audio Coding 3
Расширение режима : CM (complete main)
Параметр Endianness формата : Big
Идентификатор кодека : A_AC3
Продолжительность : 1 ч. 27 м.
Вид битрейта : Постоянный
Битрейт : 448 Кбит/сек
Каналы : 6 каналов
Расположение каналов : Front: L C R, Side: L R, LFE
Частота : 48,0 КГц
Битовая глубина : 16 бит
Метод сжатия : С потерями
Размер потока : 280 Мбайт (5%)
Заголовок : АС3 5.1 @ 448 kbps - Original
Язык : Russian
Default : Нет
Forced : Нет
Текст #1
Идентификатор : 7
Формат : UTF-8
Идентификатор кодека : S_TEXT/UTF8
Идентификатор кодека/Информация : UTF-8 Plain Text
Заголовок : Full
Язык : Russian
Default : Нет
Forced : Нет
Текст #2
Идентификатор : 8
Формат : UTF-8
Идентификатор кодека : S_TEXT/UTF8
Идентификатор кодека/Информация : UTF-8 Plain Text
Заголовок : Full
Язык : English
Default : Нет
Forced : Нет
Меню
00:00:00.000 : en:00:00:00.000
00:00:00.417 : en:00:00:00.417
00:16:05.965 : en:00:16:05.965
00:32:49.050 : en:00:32:49.050
00:49:33.512 : en:00:49:33.512
01:05:22.043 : en:01:05:22.043
01:16:20.034 : en:01:16:20.034
log x264
x264 [info]: frame I:968 Avg QP:16.38 size:103227
x264 [info]: frame P:26317 Avg QP:17.40 size: 53952
x264 [info]: frame B:98249 Avg QP:18.59 size: 29400
x264 [info]: consecutive B-frames: 1.4% 2.0% 7.0% 21.5% 20.8% 35.1% 6.9% 2.5% 1.0% 0.8% 0.4% 0.2% 0.2% 0.3%
x264 [info]: ref P L0: 41.6% 9.8% 21.2% 8.1% 7.0% 4.7% 4.5% 2.8% 0.3% 0.0%
x264 [info]: ref B L0: 75.3% 12.4% 5.5% 3.0% 2.2% 1.2% 0.5%
x264 [info]: ref B L1: 93.5% 6.5%
x264 [info]: kb/s:6735.61
encoded 125534 frames, 6735.62 kb/s
Скриншоты Comparison
Source ~ Rip ~ [url=http://***/forum/viewtopic.php?t=4058396]HDTVRip 720p[/url]




Скачать

Скачать торрент!

Как скачивать? · Что такое торрент? · Рейтинг и ограничения

Сайт не распространяет и не хранит электронные версии произведений, а лишь предоставляет доступ к создаваемому пользователями каталогу ссылок на торрент-файлы, которые содержат только списки хеш-сумм

[Профиль] [ЛС]
Показать сообщения:    
Ответить на тему

Текущее время: Сегодня 03:09

Часовой пояс: GMT + 4



Вы не можете начинать темы
Вы не можете отвечать на сообщения
Вы не можете редактировать свои сообщения
Вы не можете удалять свои сообщения
Вы не можете голосовать в опросах
Вы не можете прикреплять файлы к сообщениям
Вы не можете скачивать файлы