Ода моему отцу / Международный рынок / Ode to My Father / Gukjesijang (Юн Чже-Гюн / Yun Je Gyun) [2014, Южная Корея, Драма, исторический, DVDRip] DVO (DeadSno & Den904) + Sub Rus

Ответить на тему
 
Автор Сообщение

user ®

Стаж: 13 лет

Сообщений: 15071

Пост Пост: #1 от 14-Июл-2015 01:00

[Цитировать]

Ода моему отцу / Международный рынок / Ode to My Father / Gukjesijang
Страна: Южная Корея
Жанр: Драма, исторический
Год выпуска: 2014
Продолжительность: 02:06:27
Перевод: Любительский (двухголосый закадровый) DeadSno & Den904 по переводу sergik1
Cубтитры: русские
Оригинальная аудиодорожка: нет
Режиссер: Юн Чже-Гюн / Yun Je Gyun
В ролях: Хван Чжун-мин, Юн-Чжин Ким, О Даль-су, Чжун Чжин-юн, Чжан Юн-нам, Ра Ми-ран, Ким Сыль-гье, Ли Хьюн, Ким Мин-чжэ, Хван Сон-ва, Ум Чжи-сон, Щин Рин-а, Ли Йе-ын, Чой Чжэ-суп, Чжун Чюн-ги, Йу Чжун-о, Мэн Се-чхан, Хон Сок-йён, Стелла Чхве Ким, Ко Юн, Пак Сон-ун, Хван Ин-чжун, Чжун Йюн-о
Описание: 1953 год. Разгар Корейской войны. Маленький Ток-су и его семья бегут из порта Хыннам. Однако отец и младшая сестра мальчика пропадают без вести во время отбытия корабля. Ток-су становится главой семьи. Годы идут, мальчик взрослеет, его единственное желание – найти пропавших отца и сестру…
Фильм повествует об истории жизни Ток-су. О том, что он делал и, через что ему пришлось пройти ради обеспечения своей семьи. 60 лет жизни, смеха, радости, любви, горя и страдания…
Доп. информация: Субтитры на песенные строки приложены отдельным файлом
Сэмпл: http://multi-up.com/1058220
Качество видео: DVDRip
Формат видео: AVI
Видео: XVID, 800x336, 1663 kbps, 23.976 fps
Аудио: AC-3, 448 kbps, 48 kHZ, 6 ch
Формат субтитров: softsub (SRT)
MediaInfo
Format: AVI
Format/Info: Audio Video Interleave
File size: 1.87 GiB
Duration: 2h 6mn
Overall bit rate: 2 120 Kbps
Writing application: VirtualDubMod 1.5.10.2 (build 2540/release)
Writing library: VirtualDubMod build 2540/release
Format: MPEG-4 Visual
Format profile: Simple@L3
Format settings, BVOP: 2
Format settings, QPel: No
Format settings, GMC: No warppoints
Format settings, Matrix: Default (H.263)
Muxing mode: Packed bitstream
Codec ID: XVID
Codec ID/Hint: XviD
Duration: 2h 6mn
Bit rate: 1 663 Kbps
Width: 800 pixels
Height: 336 pixels
Display aspect ratio: 2.40:1
Frame rate: 23.976 fps
Color space: YUV
Chroma subsampling: 4:2:0
Bit depth: 8 bits
Scan type: Progressive
Compression mode: Lossy
Bits/(Pixel*Frame): 0.258
Stream size: 1.47 GiB (78%)
Writing library: XviD 1.0.3 (UTC 2004-12-20)
Format: AC-3
Format/Info: Audio Coding 3
Mode extension: CM (complete main)
Format settings, Endianness: Big
Codec ID: A_AC3
Duration: 2h 6mn
Bit rate mode: Constant
Bit rate: 448 Kbps
Channel(s): 6 channels
Channel positions: Front: L C R, Side: L R, LFE
Sampling rate: 48.0 KHz
Bit depth: 16 bits
Compression mode: Lossy
Stream size: 405 MiB (21%)
Default: Yes
Forced: No
Скриншот c названием фильма Скриншоты
Скачать

Скачать торрент! Ода моему отцу / Международный рынок / Ode to My Father / Gukjesijang (Юн Чже-Гюн / Yun Je Gyun) [2014, Южная Корея, Драма, исторический, DVDRip] DVO (DeadSno & Den904) + Sub Rus

Как скачивать? · Что такое торрент? · Рейтинг и ограничения

Сайт не распространяет и не хранит электронные версии произведений, а лишь предоставляет доступ к создаваемому пользователями каталогу ссылок на торрент-файлы, которые содержат только списки хеш-сумм

[Профиль] [ЛС]
Показать сообщения:    
Ответить на тему

Текущее время: Сегодня 22:00

Часовой пояс: GMT + 4



Вы не можете начинать темы
Вы не можете отвечать на сообщения
Вы не можете редактировать свои сообщения
Вы не можете удалять свои сообщения
Вы не можете голосовать в опросах
Вы не можете прикреплять файлы к сообщениям
Вы не можете скачивать файлы