Шоугелз / Showgirls (Пол Верховен / Paul Verhoeven) [1995, Франция, США, драма, BDRip 1080p] Dub + 2x MVO + 2x AVO + Original Eng + Sub Rus, Eng

Ответить на тему
 
Автор Сообщение

user ®

Стаж: 7 лет 7 месяцев

Сообщений: 20008

Пост Пост: #1 от 14-Июл-2015 01:00

[Цитировать]

Шоугелз / Showgirls
Страна: Франция, США
Жанр: драма
Год выпуска: 1995
Продолжительность: 02:11:22
Перевод 1: Профессиональный (дублированный)
Перевод 2: Профессиональный (многоголосый закадровый) CP Digital
Перевод 3: Профессиональный (многоголосый закадровый) СТС
Перевод 4: Авторский (одноголосый закадровый) Гаврилов Андрей
Перевод 5: Авторский (одноголосый закадровый) Живов Андрей
Cубтитры: русские (x3), английские
Оригинальная аудиодорожка: английский
Режиссер: Пол Верховен / Paul Verhoeven
В ролях: Элизабет Беркли, Кайл МакЛаклэн, Джина Гершон, Гленн Пламмер, Роберт Дави, Алан Рэчинс, Джина Равера, Лин Туччи, Грег Трэвис, Эл Рушио, Патрик Бристоу, Уильям Шокли, Мишель Джонстон, Рина Риффел, Мелисса Уильямс, Мелинда Сонгер, Джек МакГи, Бобби Филлипс, Данте МакКарти
Описание: Молодая длинноногая танцовщица Номи отчаянно пытается добиться успеха в Лас-Вегасе и проникнуть в блистающий мир ярких огней, блеска и света шоу — сцены. Чтобы удержаться «на плаву», она соглашается на единственно возможную работу — стриптиз, пока ей не удается вытянуть свой счастливый билет — познакомиться с королевой сцены Лас-Вегаса Кристал.
Используя свое влияние, Кристал устраивает Номи в свое шоу и вводит ее в истинный мир шоу-бизнеса Лас-Вегаса — мир случая, предательства и интриг, в котором сексуальность можно использовать как власть.
Сэмпл: Скачать
Тип релиза: BDRip 1080p (SbR)
Контейнер: MKV
Видео: 1920x800, 23.976 fps, x264 ~23189 kbps
Аудио 1: Русский AC3 2.0, 48 kHz, 192 kbps |Дубляж|
Аудио 2: Русский DTS 5.1, 48 kHz, 1509 kbps |CP Digital|
Аудио 3: Русский AC3 2.0, 48 kHz, 192 kbps |СТС|
Аудио 4: Русский AC3 5.1, 48 kHz, 448 kbps |Гаврилов|
Аудио 5: Русский DTS 5.1, 48 kHz, 1509 kbps |Живов|
Аудио 6: Английский DTS 5.1, 48 kHz, 1509 kbps
Аудио 7: Английский AC3 2.0, 48 kHz, 224 kbps |Commentary|
Формат субтитров: softsub (SRT)
MediaInfo
General
Unique ID : 184838580661685654585840857588739320967 (0x8B0E9DA0F7FD5AEE8151959DB0C3AC87)
Complete name : G:\Showgirls.1995.1080p.BluRay.6xRus.Eng-SbR.mkv
Format : Matroska
Format version : Version 4 / Version 2
File size : 26.4 GiB
Duration : 2h 11mn
Overall bit rate : 28.8 Mbps
Movie name : Showgirls (1995) - Encode by SbR
Encoded date : UTC 2015-07-13 07:48:27
Writing application : mkvmerge v8.1.0 ('Psychedelic Postcard') 64bit
Writing library : libebml v1.3.1 + libmatroska v1.4.2
Attachements : cover.jpg
Video
ID : 1
Format : AVC
Format/Info : Advanced Video Codec
Format profile : High@L4.1
Format settings, CABAC : Yes
Format settings, ReFrames : 5 frames
Codec ID : V_MPEG4/ISO/AVC
Duration : 2h 11mn
Bit rate : 22.6 Mbps
Width : 1 920 pixels
Height : 800 pixels
Display aspect ratio : 2.40:1
Frame rate mode : Constant
Frame rate : 23.976 fps
Color space : YUV
Chroma subsampling : 4:2:0
Bit depth : 8 bits
Scan type : Progressive
Bits/(Pixel*Frame) : 0.614
Stream size : 20.8 GiB (79%)
Writing library : x264 core 146 r2538kMod 121396c
Encoding settings : cabac=1 / ref=5 / deblock=1:-2:-2 / analyse=0x3:0x133 / me=umh / subme=11 / psy=1 / fade_compensate=0.00 / psy_rd=1.00:0.00 / mixed_ref=1 / me_range=32 / chroma_me=1 / trellis=2 / 8x8dct=1 / cqm=0 / deadzone=21,11 / fast_pskip=1 / chroma_qp_offset=-2 / threads=12 / lookahead_threads=2 / sliced_threads=0 / nr=0 / decimate=1 / interlaced=0 / bluray_compat=0 / constrained_intra=0 / fgo=0 / bframes=8 / b_pyramid=2 / b_adapt=2 / b_bias=0 / direct=1 / weightb=1 / open_gop=0 / weightp=2 / keyint=250 / keyint_min=23 / scenecut=40 / intra_refresh=0 / rc_lookahead=60 / rc=crf / mbtree=0 / crf=18.0000 / qcomp=0.70 / qpmin=0 / qpmax=69 / qpstep=4 / vbv_maxrate=62500 / vbv_bufsize=78125 / crf_max=0.0 / nal_hrd=none / filler=0 / ip_ratio=1.40 / pb_ratio=1.30 / aq=1:0.70
Language : English
Default : Yes
Forced : No
Color range : Limited
Color primaries : BT.709
Transfer characteristics : BT.709
Matrix coefficients : BT.709
Audio #1
ID : 2
Format : AC-3
Format/Info : Audio Coding 3
Mode extension : CM (complete main)
Format settings, Endianness : Big
Codec ID : A_AC3
Duration : 2h 11mn
Bit rate mode : Constant
Bit rate : 192 Kbps
Channel(s) : 2 channels
Channel positions : Front: L R
Sampling rate : 48.0 KHz
Compression mode : Lossy
Stream size : 180 MiB (1%)
Title : Дубляж
Language : Russian
Default : Yes
Forced : No
Audio #2
ID : 3
Format : DTS
Format/Info : Digital Theater Systems
Mode : 16
Format settings, Endianness : Big
Codec ID : A_DTS
Duration : 2h 11mn
Bit rate mode : Constant
Bit rate : 1 509 Kbps
Channel(s) : 6 channels
Channel positions : Front: L C R, Side: L R, LFE
Sampling rate : 48.0 KHz
Bit depth : 24 bits
Compression mode : Lossy
Stream size : 1.38 GiB (5%)
Title : MVO, CP Digital
Language : Russian
Default : No
Forced : No
Audio #3
ID : 4
Format : AC-3
Format/Info : Audio Coding 3
Mode extension : CM (complete main)
Format settings, Endianness : Big
Codec ID : A_AC3
Duration : 2h 11mn
Bit rate mode : Constant
Bit rate : 192 Kbps
Channel(s) : 2 channels
Channel positions : Front: L R
Sampling rate : 48.0 KHz
Compression mode : Lossy
Stream size : 180 MiB (1%)
Title : MVO, СТС
Language : Russian
Default : No
Forced : No
Audio #4
ID : 5
Format : AC-3
Format/Info : Audio Coding 3
Mode extension : CM (complete main)
Format settings, Endianness : Big
Codec ID : A_AC3
Duration : 2h 11mn
Bit rate mode : Constant
Bit rate : 448 Kbps
Channel(s) : 6 channels
Channel positions : Front: L C R, Side: L R, LFE
Sampling rate : 48.0 KHz
Compression mode : Lossy
Stream size : 421 MiB (2%)
Title : Гаврилов
Language : Russian
Default : No
Forced : No
Audio #5
ID : 6
Format : DTS
Format/Info : Digital Theater Systems
Mode : 16
Format settings, Endianness : Big
Codec ID : A_DTS
Duration : 2h 11mn
Bit rate mode : Constant
Bit rate : 1 509 Kbps
Channel(s) : 6 channels
Channel positions : Front: L C R, Side: L R, LFE
Sampling rate : 48.0 KHz
Bit depth : 24 bits
Compression mode : Lossy
Stream size : 1.38 GiB (5%)
Title : Живов
Language : Russian
Default : No
Forced : No
Audio #6
ID : 7
Format : DTS
Format/Info : Digital Theater Systems
Mode : 16
Format settings, Endianness : Big
Codec ID : A_DTS
Duration : 2h 11mn
Bit rate mode : Constant
Bit rate : 1 509 Kbps
Channel(s) : 6 channels
Channel positions : Front: L C R, Side: L R, LFE
Sampling rate : 48.0 KHz
Bit depth : 24 bits
Compression mode : Lossy
Stream size : 1.38 GiB (5%)
Language : English
Default : No
Forced : No
Audio #7
ID : 8
Format : AC-3
Format/Info : Audio Coding 3
Mode extension : CM (complete main)
Format settings, Endianness : Big
Codec ID : A_AC3
Duration : 2h 11mn
Bit rate mode : Constant
Bit rate : 224 Kbps
Channel(s) : 2 channels
Channel positions : Front: L R
Sampling rate : 48.0 KHz
Compression mode : Lossy
Stream size : 210 MiB (1%)
Title : Commentary
Language : English
Default : No
Forced : No
Text #1
ID : 9
Format : UTF-8
Codec ID : S_TEXT/UTF8
Codec ID/Info : UTF-8 Plain Text
Language : Russian
Default : No
Forced : No
Text #2
ID : 10
Format : UTF-8
Codec ID : S_TEXT/UTF8
Codec ID/Info : UTF-8 Plain Text
Language : Russian
Default : No
Forced : No
Text #3
ID : 11
Format : UTF-8
Codec ID : S_TEXT/UTF8
Codec ID/Info : UTF-8 Plain Text
Language : Russian
Default : No
Forced : No
Text #4
ID : 12
Format : UTF-8
Codec ID : S_TEXT/UTF8
Codec ID/Info : UTF-8 Plain Text
Language : English
Default : No
Forced : No
Menu
00:00:00.000 : en:Title/Switchblade Nomi
00:03:20.450 : en:Friend or Faux
00:08:11.741 : en:It's the Show, Girl!
00:12:20.656 : en:Cristal Magic
00:16:04.546 : en:She Can Dance
00:19:43.182 : en:Cheetah's House Rules
00:22:43.487 : en:Is It Dancing?
00:26:14.906 : en:Lap Dancer's Delight
00:34:09.839 : en:The Dress She Wants
00:36:09.584 : en:Stardust Material
00:38:00.444 : en:Audition: Impossible
00:43:55.841 : en:Training Ground
00:49:31.510 : en:Movin' On Up
00:53:04.264 : en:"It's a Ver-sayce"
00:56:31.971 : en:Practice Run
00:58:26.002 : en:For the Very First Time
01:02:43.593 : en:Discarded
01:04:48.968 : en:A New Start
01:11:37.835 : en:Boat Convention
01:18:16.191 : en:Tough Break No. 1
01:23:07.607 : en:Pool Daze
01:29:28.279 : en:"Nomi's Got Heat"
01:31:26.564 : en:James' Show
01:37:24.296 : en:Easy Come, Easy Go
01:38:49.006 : en:Tough Break No. 2
01:42:37.734 : en:A Star Is Born
01:45:35.120 : en:Sad, Mad Molly
01:46:59.788 : en:Goddess, Star & Groupie
01:52:38.376 : en:Polly's Rap Sheet
01:55:46.814 : en:Payback
01:58:49.455 : en:Nicely Settled
02:03:39.412 : en:End Credits
xlog
raw [info]: 1920x800p 1:1 @ 24000/1001 fps (cfr)
x264 [info]: using SAR=1/1
x264 [info]: using cpu capabilities: MMX2 SSE2Fast SSSE3 SSE4.2 AVX
x264 [info]: profile High, level 4.1
x264 [info]: frame I:1132 Avg QP:17.73 size:236800
x264 [info]: frame P:40546 Avg QP:19.24 size:160085
x264 [info]: frame B:147309 Avg QP:21.44 size:109224
x264 [info]: consecutive B-frames: 1.3% 2.7% 3.4% 40.9% 7.4% 22.7% 3.4% 16.7% 1.4%
x264 [info]: mb I I16..4: 3.7% 87.9% 8.5%
x264 [info]: mb P I16..4: 0.3% 42.1% 1.6% P16..4: 18.4% 23.7% 7.4% 0.8% 0.0% skip: 5.7%
x264 [info]: mb B I16..4: 0.1% 15.6% 0.2% B16..8: 36.0% 20.9% 4.4% direct:11.8% skip:11.0% L0:42.6% L1:39.2% BI:18.2%
x264 [info]: 8x8 transform intra:96.8% inter:63.5%
x264 [info]: coded y,uvDC,uvAC intra: 99.1% 98.9% 95.4% inter: 64.1% 65.7% 38.9%
x264 [info]: i16 v,h,dc,p: 24% 11% 6% 59%
x264 [info]: i8 v,h,dc,ddl,ddr,vr,hd,vl,hu: 9% 7% 12% 10% 14% 13% 12% 12% 12%
x264 [info]: i4 v,h,dc,ddl,ddr,vr,hd,vl,hu: 9% 6% 4% 9% 16% 16% 15% 12% 13%
x264 [info]: i8c dc,h,v,p: 60% 8% 10% 21%
x264 [info]: Weighted P-Frames: Y:5.2% UV:3.9%
x264 [info]: ref P L0: 44.9% 11.4% 23.0% 11.1% 9.0% 0.5% 0.0%
x264 [info]: ref B L0: 77.3% 16.0% 5.3% 1.4%
x264 [info]: ref B L1: 92.1% 7.9%
x264 [info]: kb/s:23189.62
encoded 188987 frames, 3.18 fps, 23189.62 kb/s, duration 16:29:29.99
Скриншоты
Encode vs. Source vs. [url=http://***/forum/viewtopic.php?t=3004953]CHD[/url]





Скачать

Скачать торрент!

Как скачивать? · Что такое торрент? · Рейтинг и ограничения

Сайт не распространяет и не хранит электронные версии произведений, а лишь предоставляет доступ к создаваемому пользователями каталогу ссылок на торрент-файлы, которые содержат только списки хеш-сумм

[Профиль] [ЛС]
Показать сообщения:    
Ответить на тему

Текущее время: Сегодня 09:59

Часовой пояс: GMT + 4



Вы не можете начинать темы
Вы не можете отвечать на сообщения
Вы не можете редактировать свои сообщения
Вы не можете удалять свои сообщения
Вы не можете голосовать в опросах
Вы не можете прикреплять файлы к сообщениям
Вы не можете скачивать файлы