Последняя девушка / Final Girl (Тайлер Шилдс / Tyler Shields) [2015, Канада, США, Триллер, драма, боевик, HDRip] VO (Хихикающий доктор) + Original Eng

Ответить на тему
 
Автор Сообщение

user ®

Стаж: 7 лет 7 месяцев

Сообщений: 20008

Пост Пост: #1 от 13-Июл-2015 18:48

[Цитировать]

Последняя девушка / Final Girl
Страна: Канада, США
Жанр: Триллер, драма, боевик
Год выпуска: 2015
Продолжительность: 01:24:12
Перевод: Одноголосый закадровый Хихикающий доктор
Cубтитры: нет
Оригинальная аудиодорожка: английский
Режиссер: Тайлер Шилдс / Tyler Shields
В ролях: Эбигейл Бреслин, Уэс Бентли, Логан Хаффман, Александр Людвиг, Кэмерон Брайт, Рис Томпсон, Эмма Паэтц, Грэйсин Шиней, Дезире Зуровски, Франческа Фишер-Иствуд
Описание: В центре событий фильма группа подростков, совершающие убийства девушек ради забавы. К несчастью в качестве жертвы они выбрали совсем не ту девчонку. Вскоре охотники сами оказались в роли добычи.
Сэмпл: https://yadi.sk/i/LrFCICmEhoMKM
Качество видео: HDRip
Формат видео: AVI
Видео: MPEG-4 Visual at 1906 Кбит/сек, 720 x 304 (2.368) at 23.976 fps
Аудио 1: Rus AC-3 at 192 Кбит/сек, 2 канала, 44,1 КГц
Аудио 2: Eng AC-3 at 384 Кбит/сек, 6 каналов, 48,0 КГц
MediaInfo
Общее
Полное имя : F:\Rutracker-Razdachi\Final.Girl.2015.xixidok.HDRip.ExKinoRay.avi
Формат : AVI
Формат/Информация : Audio Video Interleave
Размер файла : 1,47 Гбайт
Продолжительность : 1 ч. 24 м.
Общий поток : 2496 Кбит/сек
Программа кодирования : VirtualDubMod 1.5.10.2 (build 2540/release)
Библиотека кодирования : VirtualDubMod build 2540/release
Авторское право : ExKinoRay
Видео
Идентификатор : 0
Формат : MPEG-4 Visual
Профиль формата : Advanced Simple@L5
Параметр BVOP формата : 1
Параметр QPel формата : Нет
Параметр GMC формата : Без точки перехода
Параметр матрицы формата : Выборочная
Идентификатор кодека : XVID
Идентификатор кодека/Подсказка : XviD
Продолжительность : 1 ч. 24 м.
Битрейт : 1906 Кбит/сек
Ширина : 720 пикселей
Высота : 304 пикселя
Соотношение сторон : 2,35:1
Частота кадров : 23,976 кадра/сек
Цветовое пространство : YUV
Субдискретизация насыщенности : 4:2:0
Битовая глубина : 8 бит
Тип развёртки : Прогрессивная
Метод сжатия : С потерями
Бит/(Пиксели*Кадры) : 0.363
Размер потока : 1,12 Гбайт (76%)
Библиотека кодирования : XviD 73
Аудио #1
Идентификатор : 1
Формат : AC-3
Формат/Информация : Audio Coding 3
Расширение режима : CM (complete main)
Параметр Endianness формата : Big
Идентификатор кодека : 2000
Продолжительность : 1 ч. 24 м.
Вид битрейта : Постоянный
Битрейт : 192 Кбит/сек
Каналы : 2 канала
Расположение каналов : Front: L R
Частота : 44,1 КГц
Битовая глубина : 16 бит
Метод сжатия : С потерями
Размер потока : 116 Мбайт (8%)
Выравнивание : Разделение по промежуткам
Продолжительность промежутка : 42 мс. (1,00 видеокадр)
Время предзагрузки промежутка : 500 мс.
Заголовок : xixidok
Аудио #2
Идентификатор : 2
Формат : AC-3
Формат/Информация : Audio Coding 3
Расширение режима : CM (complete main)
Параметр Endianness формата : Big
Идентификатор кодека : 2000
Продолжительность : 1 ч. 24 м.
Вид битрейта : Постоянный
Битрейт : 384 Кбит/сек
Каналы : 6 каналов
Расположение каналов : Front: L C R, Side: L R, LFE
Частота : 48,0 КГц
Битовая глубина : 16 бит
Метод сжатия : С потерями
Размер потока : 231 Мбайт (15%)
Выравнивание : Разделение по промежуткам
Продолжительность промежутка : 42 мс. (1,00 видеокадр)
Время предзагрузки промежутка : 500 мс.
Скриншоты
Скачать

Скачать торрент!

Как скачивать? · Что такое торрент? · Рейтинг и ограничения

Сайт не распространяет и не хранит электронные версии произведений, а лишь предоставляет доступ к создаваемому пользователями каталогу ссылок на торрент-файлы, которые содержат только списки хеш-сумм

[Профиль] [ЛС]
Показать сообщения:    
Ответить на тему

Текущее время: Сегодня 00:05

Часовой пояс: GMT + 4



Вы не можете начинать темы
Вы не можете отвечать на сообщения
Вы не можете редактировать свои сообщения
Вы не можете удалять свои сообщения
Вы не можете голосовать в опросах
Вы не можете прикреплять файлы к сообщениям
Вы не можете скачивать файлы