Добро пожаловать в рай / Vice (Брайан А Миллер / Brian A Miller) [2015, США, фантастика, боевик, триллер, BDRip 1080p] Dub + Sub Eng + Original Eng

Ответить на тему
 
Автор Сообщение

user ®

Стаж: 7 лет 7 месяцев

Сообщений: 20008

Пост Пост: #1 от 13-Июл-2015 00:12

[Цитировать]

Добро пожаловать в рай / Vice
Страна: США
Жанр: Фантастика, боевик, триллер, приключения
Год выпуска: 2015
Продолжительность: 01:36:23
Перевод: Профессиональный (дублированный)
Cубтитры: Английские
Оригинальная аудиодорожка: Английский
Режиссер: Брайан А Миллер / Brian A Miller
Сценарий: Андре Фабрицио, Джереми Пассмор
Продюсер: Рэндолл Эмметт, Джордж Фурла, Адам Голдворм
В ролях: Томас Джейн, Брюс Уиллис, Эмбир Чилдерс, Брайан Гринберг, Джонатон Шек, Шарлотта Кирк, Бретт Гранстафф, Райан О Нан, David Gordon, Колин Эглсфилд
Описание: Действие происходит в относительно недалеком будущем, когда для богачей создан специальный город-курорт, основные обитатели которых и обслуга андроиды. Туристы за соответствующую цену могут осуществить здесь самые безумные свои фантазии, а андроиды, пострадавшие от рук людей, направляются на перезагрузку памяти. Но однажды случается сбой, и женщина-андроид обретает память о всех кошмарах, которым богатые извращенцы подвергали ее и остальных искусственных людей. И она решает отомстить.
Качество видео: BDRip
Формат видео: MKV
Видео: H.264, 1920x800, 2.40:1, 11 000 Kbps, 23.976 fps
Аудио 1: Русский/Дублированный (BlueBird), DTS / 5.1 / 768 Kbps / 48.0 KHz
Аудио 2: Английский/Оригинальная дорожка , AC-3 / 5.1 / 640 Kbps / 48.0 KHz
MediaInfo
Общее
Уникальный идентификатор : 228172160106349850885260261944162767884 (0xABA85C0C489DF95284B139776353D40C)
Полное имя : C:\Users\Arachnid\Videos\1080р\Vice.2015.mkv
Формат : Matroska
Версия формата : Version 4 / Version 2
Размер файла : 8,38 Гбайт
Продолжительность : 1 ч. 45 м.
Общий поток : 11,4 Мбит/сек
Название фильма : Vice.2015.720p.BluRay.DD5.1.x264-VietHD
Дата кодирования : UTC 2015-07-11 02:35:49
Программа кодирования : mkvmerge v7.8.0 ('River Man') 64bit built on Mar 27 2015 16:31:37
Библиотека кодирования : libebml v1.3.1 + libmatroska v1.4.2
DURATION : 01:30:06.370000000
NUMBER_OF_FRAMES : 1244
NUMBER_OF_BYTES : 55165
_STATISTICS_WRITING_APP : mkvmerge v7.8.0 ('River Man') 64bit built on Mar 27 2015 16:31:37
_STATISTICS_WRITING_DATE_UTC : 2015-07-11 02:35:49
_STATISTICS_TAGS : BPS DURATION NUMBER_OF_FRAMES NUMBER_OF_BYTES
Attachment : Yes
Видео #1
Идентификатор : 1
Формат : AVC
Формат/Информация : Advanced Video Codec
Профиль формата : High@L4.1
Параметр CABAC формата : Да
Параметр ReFrames формата : 5 кадров
Идентификатор кодека : V_MPEG4/ISO/AVC
Продолжительность : 1 ч. 45 м.
Номинальный битрейт : 11,0 Мбит/сек
Ширина : 1920 пикселей
Высота : 800 пикселей
Соотношение сторон : 2,40:1
Режим частоты кадров : Постоянный
Частота кадров : 23,976 кадра/сек
Цветовое пространство : YUV
Субдискретизация насыщенности : 4:2:0
Битовая глубина : 8 бит
Тип развёртки : Прогрессивная
Бит/(Пиксели*Кадры) : 0.300
Библиотека кодирования : x264 core 146 r2538 121396c
Настройки программы : cabac=1 / ref=5 / deblock=1:-2:-2 / analyse=0x3:0x113 / me=umh / subme=9 / psy=1 / psy_rd=1.00:0.00 / mixed_ref=1 / me_range=32 / chroma_me=1 / trellis=2 / 8x8dct=1 / cqm=0 / deadzone=21,11 / fast_pskip=0 / chroma_qp_offset=-2 / threads=4 / lookahead_threads=1 / sliced_threads=0 / nr=0 / decimate=1 / interlaced=0 / bluray_compat=0 / constrained_intra=0 / bframes=3 / b_pyramid=2 / b_adapt=2 / b_bias=0 / direct=1 / weightb=1 / open_gop=0 / weightp=2 / keyint=240 / keyint_min=23 / scenecut=40 / intra_refresh=0 / rc_lookahead=40 / rc=2pass / mbtree=1 / bitrate=11041 / ratetol=1.0 / qcomp=0.60 / qpmin=10 / qpmax=69 / qpstep=4 / cplxblur=20.0 / qblur=0.5 / ip_ratio=1.40 / aq=1:1.00 / zones=132017,138665,q=40
Default : Да
Forced : Нет
Аудио #1
Идентификатор : 2
Формат : DTS
Формат/Информация : Digital Theater Systems
Режим : 16
Параметр Endianness формата : Big
Идентификатор кодека : A_DTS
Продолжительность : 1 ч. 45 м.
Вид битрейта : Постоянный
Битрейт : 768 Кбит/сек
Каналы : 6 каналов
Расположение каналов : Front: L C R, Side: L R, LFE
Частота : 48,0 КГц
Битовая глубина : 24 бит
Метод сжатия : С потерями
Размер потока : 578 Мбайт (7%)
Default : Да
Forced : Нет
Аудио #2
Идентификатор : 3
Формат : AC-3
Формат/Информация : Audio Coding 3
Расширение режима : CM (complete main)
Параметр Endianness формата : Big
Идентификатор кодека : A_AC3
Продолжительность : 1 ч. 45 м.
Вид битрейта : Постоянный
Битрейт : 640 Кбит/сек
Каналы : 6 каналов
Расположение каналов : Front: L C R, Side: L R, LFE
Частота : 48,0 КГц
Битовая глубина : 16 бит
Метод сжатия : С потерями
Размер потока : 481 Мбайт (6%)
Язык : English
Default : Нет
Forced : Нет
Текст
Идентификатор : 5
Формат : UTF-8
Идентификатор кодека : S_TEXT/UTF8
Идентификатор кодека/Информация : UTF-8 Plain Text
Язык : English
Default : Нет
Forced : Нет
Меню
00:00:00.000 : en:Chapter 1
00:05:18.000 : en:Chapter 2
00:14:50.000 : en:Chapter 3
00:24:37.000 : en:Chapter 4
00:34:48.000 : en:Chapter 5
00:45:39.000 : en:Chapter 6
00:56:43.000 : en:Chapter 7
01:06:33.000 : en:Chapter 8
01:15:03.000 : en:Chapter 9
01:26:05.000 : en:Chapter 10
01:31:51.000 : en:Chapter 11
Сэмпл Скриншот c названием фильма Скриншоты
Скачать

Скачать торрент!

Как скачивать? · Что такое торрент? · Рейтинг и ограничения

Сайт не распространяет и не хранит электронные версии произведений, а лишь предоставляет доступ к создаваемому пользователями каталогу ссылок на торрент-файлы, которые содержат только списки хеш-сумм

[Профиль] [ЛС]
Показать сообщения:    
Ответить на тему

Текущее время: Сегодня 21:51

Часовой пояс: GMT + 4



Вы не можете начинать темы
Вы не можете отвечать на сообщения
Вы не можете редактировать свои сообщения
Вы не можете удалять свои сообщения
Вы не можете голосовать в опросах
Вы не можете прикреплять файлы к сообщениям
Вы не можете скачивать файлы