Институт Аттикус / The Atticus Institute (Крис Спарлинг / Krees Sparling) [2015, США, ужасы, триллер, драма, BDRemux 1080p] Dub + Sub Rus, Eng + Original Eng

Ответить на тему
 
Автор Сообщение

user ®

Стаж: 7 лет 7 месяцев

Сообщений: 20008

Пост Пост: #1 от 13-Июл-2015 00:12

[Цитировать]

Институт Аттикус / The Atticus Institute
Страна: США
Студия: Safran Company
Жанр: Ужасы, триллер, драма
Год выпуска: 2015
Продолжительность: 01:22:48
Перевод: Профессиональный (дублированный)
Cубтитры: Русские, английские, испанские
Оригинальная аудиодорожка: английский
Режиссер: Крис Спарлинг / Chris Sparling
В ролях: Джулиан Акоста, Энн Бетанкур, Карлос Е. Кампос, Джейк Карпентер, Хит Сентаццо, Брайан Ченоуэт, Ханна Коули, Аарон Крэвен, Динарте де Фрейтас, Лэндалл Гулсби
Описание: Генри Уэст основал институт Аттикус, который занимается исследованием людей с паранормальными способностями - телекинез, телепатия и т. п. За всю его деятельность Уэст видел много разных случаев, но с появлением женщины Джудит Уинстед, всё что он видел ранее стало малозначительным. Сотрудники института были поражены ее сверх способностями, что привлекло внимание военных США, и дальнейшие исследования проводились под контролем армии. Все дальнейшие исследования Джудит дали понять докторам, что ее способности это происки дьявола и потусторонних сил, которые находились внутри женщины. Военные решают использовать Джудит в качестве оружия. Но вскоре и они понимают, что не со всякой властью они могут справиться.
Доп. информация: http://www.imdb.com/title/tt3280916/?ref_=fn_al_tt_1 5.4
http://www.kinopoisk.ru/film/806686/ 5.4
Сэмпл: http://sendfile.su/1136722
Тип релиза: BDRemux 1080p
Контейнер: BDAV
Видео: MPEG-4 AVC, 24437 Кбит/с, 1920x1080, 23.976 кадр/с
Аудио: Русский (AC3, 6 ch, 384 Кбит/с, 48 kHz )
Аудио 2: английский (TrueHD, 6 ch, 1201 Кбит/с, 48 kHz),16-bit (AC3 Embedded: 5.1 / 48 kHz / 640 kbps)
BDInfo
Disc Title: The.Atticus.Institute.2015.BluRay.1080p.NovaLan
Disc Size: 21 416 946 654 bytes
Protection: AACS
BD-Java: Yes
BDInfo: 0.5.8
Notes:
BDINFO HOME:
Cinema Squid
http://www.cinemasquid.com/blu-ray/tools/bdinfo
INCLUDES FORUMS REPORT FOR:
AVS Forum Blu-ray Audio and Video Specifications Thread
http://www.avsforum.com/avs-vb/showthread.php?t=1155731
********************
PLAYLIST: 00001.MPLS
********************
Total   Video
Title                                                           Codec   Length  Movie Size      Disc Size       Bitrate Bitrate Main Audio Track                          Secondary Audio Track
-----                                                           ------  ------- --------------  --------------  ------- ------- ------------------                        ---------------------
00001.MPLS                                                      AVC     1:22:48 17 944 393 728  21 416 946 654  28,89   24,44   Dolby TrueHD 5.1 1201Kbps (48kHz/16-bit)
DISC INFO:
Disc Title:     The.Atticus.Institute.2015.BluRay.1080p.NovaLan
Disc Size:      21 416 946 654 bytes
Protection:     AACS
BD-Java:        Yes
BDInfo:         0.5.8
PLAYLIST REPORT:
Name:                   00001.MPLS
Length:                 1:22:48.964 (h:m:s.ms)
Size:                   17 944 393 728 bytes
Total Bitrate:          28,89 Mbps
VIDEO:
Codec                   Bitrate             Description
-----                   -------             -----------
MPEG-4 AVC Video        24437 kbps          1080p / 23,976 fps / 16:9 / High Profile 4.1
AUDIO:
Codec                           Language        Bitrate         Description
-----                           --------        -------         -----------
Dolby TrueHD Audio              English         1201 kbps       5.1 / 48 kHz / 1201 kbps / 16-bit (AC3 Embedded: 5.1 / 48 kHz / 640 kbps)
Dolby Digital Audio             Russian         384 kbps        5.1 / 48 kHz / 384 kbps / DN -4dB
SUBTITLES:
Codec                           Language        Bitrate         Description
-----                           --------        -------         -----------
Presentation Graphics           English         49,391 kbps
Presentation Graphics           Spanish         47,914 kbps
Presentation Graphics           Russian         35,968 kbps
FILES:
Name            Time In         Length          Size            Total Bitrate
----            -------         ------          ----            -------------
00001.M2TS      0:00:00.000     1:22:48.964     17 944 393 728  28 890
CHAPTERS:
Number          Time In         Length          Avg Video Rate  Max 1-Sec Rate  Max 1-Sec Time  Max 5-Sec Rate  Max 5-Sec Time  Max 10Sec Rate  Max 10Sec Time  Avg Frame Size  Max Frame Size  Max Frame Time
------          -------         ------          --------------  --------------  --------------  --------------  --------------  --------------  --------------  --------------  --------------  --------------
1               0:00:00.000     0:03:02.348     23 731 kbps     47 568 kbps     00:00:11.302    30 230 kbps     00:00:20.145    29 224 kbps     00:00:17.892    123 694 bytes   724 905 bytes   00:00:11.344
2               0:03:02.348     0:07:43.254     24 401 kbps     40 409 kbps     00:07:36.747    31 090 kbps     00:03:37.634    30 980 kbps     00:03:25.455    127 215 bytes   780 306 bytes   00:05:37.128
3               0:10:45.603     0:09:10.800     25 467 kbps     40 671 kbps     00:14:12.351    28 913 kbps     00:14:53.058    27 439 kbps     00:14:53.100    132 771 bytes   737 349 bytes   00:14:17.398
4               0:19:56.403     0:06:04.906     25 328 kbps     33 270 kbps     00:19:56.820    28 821 kbps     00:22:25.010    27 164 kbps     00:22:25.010    132 049 bytes   764 668 bytes   00:19:57.654
5               0:26:01.309     0:08:05.359     25 244 kbps     42 609 kbps     00:26:02.310    28 965 kbps     00:26:01.977    27 920 kbps     00:30:45.093    131 612 bytes   736 218 bytes   00:31:41.983
6               0:34:06.669     0:05:42.467     23 434 kbps     44 491 kbps     00:34:51.047    31 448 kbps     00:37:29.288    30 473 kbps     00:37:24.325    122 173 bytes   656 557 bytes   00:36:13.963
7               0:39:49.136     0:09:49.088     25 592 kbps     34 083 kbps     00:39:51.889    29 848 kbps     00:43:59.219    29 082 kbps     00:43:59.219    133 426 bytes   719 649 bytes   00:44:53.399
8               0:49:38.225     0:06:11.662     25 362 kbps     42 382 kbps     00:55:10.515    32 702 kbps     00:55:10.515    29 535 kbps     00:55:10.515    132 225 bytes   712 684 bytes   00:54:12.999
9               0:55:49.888     0:06:38.272     25 515 kbps     40 494 kbps     00:55:49.888    28 607 kbps     00:55:49.888    26 947 kbps     00:55:49.888    133 023 bytes   742 933 bytes   00:56:45.652
10              1:02:28.161     0:06:32.183     25 655 kbps     35 655 kbps     01:04:39.500    27 288 kbps     01:04:44.338    26 667 kbps     01:04:30.783    133 752 bytes   595 935 bytes   01:04:47.008
11              1:09:00.344     0:10:37.011     24 604 kbps     40 195 kbps     01:16:16.238    32 305 kbps     01:16:16.280    29 165 kbps     01:16:16.363    128 275 bytes   479 927 bytes   01:17:17.132
12              1:19:37.355     0:03:11.608     9 655 kbps      18 105 kbps     01:20:01.505    16 539 kbps     01:19:58.335    16 147 kbps     01:19:54.164    50 357 bytes    303 158 bytes   01:20:02.506
STREAM DIAGNOSTICS:
File            PID             Type            Codec           Language                Seconds                 Bitrate                 Bytes           Packets
----            ---             ----            -----           --------                --------------          --------------          -------------   -----
00001.M2TS      4113 (0x1011)   0x1B            AVC                                     4968,881                24 437                  15 178 353 044  82 560 803
00001.M2TS      4352 (0x1100)   0x83            TrueHD          eng (English)           4968,881                1 841                   1 143 270 768   8 866 410
00001.M2TS      4353 (0x1101)   0x81            AC3             rus (Russian)           4968,881                384                     238 537 728     1 397 682
00001.M2TS      4608 (0x1200)   0x90            PGS             eng (English)           4968,881                49                      30 677 490      174 247
00001.M2TS      4609 (0x1201)   0x90            PGS             spa (Spanish)           4968,881                48                      29 760 229      168 108
00001.M2TS      4610 (0x1202)   0x90            PGS             rus (Russian)           4968,881                36                      22 340 472      126 637
QUICK SUMMARY:
Disc Title: The.Atticus.Institute.2015.BluRay.1080p.NovaLan
Disc Size: 21 416 946 654 bytes
Protection: AACS
BD-Java: Yes
Playlist: 00001.MPLS
Size: 17 944 393 728 bytes
Length: 1:22:48.964
Total Bitrate: 28,89 Mbps
Video: MPEG-4 AVC Video / 24437 kbps / 1080p / 23,976 fps / 16:9 / High Profile 4.1
Audio: English / Dolby TrueHD Audio / 5.1 / 48 kHz / 1201 kbps / 16-bit (AC3 Embedded: 5.1 / 48 kHz / 640 kbps)
Audio: Russian / Dolby Digital Audio / 5.1 / 48 kHz / 384 kbps / DN -4dB
Subtitle: English / 49,391 kbps
Subtitle: Spanish / 47,914 kbps
Subtitle: Russian / 35,968 kbps
********************
PLAYLIST: 00100.MPLS
********************
Total   Video
Title                                                           Codec   Length  Movie Size      Disc Size       Bitrate Bitrate Main Audio Track                          Secondary Audio Track
-----                                                           ------  ------- --------------  --------------  ------- ------- ------------------                        ---------------------
00100.MPLS                                                      AVC     0:09:04 1 763 837 952   21 416 946 654  25,90   24,52   DD AC3 2.0 192Kbps
DISC INFO:
Disc Title:     The.Atticus.Institute.2015.BluRay.1080p.NovaLan
Disc Size:      21 416 946 654 bytes
Protection:     AACS
BD-Java:        Yes
BDInfo:         0.5.8
PLAYLIST REPORT:
Name:                   00100.MPLS
Length:                 0:09:04.877 (h:m:s.ms)
Size:                   1 763 837 952 bytes
Total Bitrate:          25,90 Mbps
VIDEO:
Codec                   Bitrate             Description
-----                   -------             -----------
MPEG-4 AVC Video        24518 kbps          1080p / 23,976 fps / 16:9 / High Profile 4.1
AUDIO:
Codec                           Language        Bitrate         Description
-----                           --------        -------         -----------
Dolby Digital Audio             English         192 kbps        2.0 / 48 kHz / 192 kbps
FILES:
Name            Time In         Length          Size            Total Bitrate
----            -------         ------          ----            -------------
00100.M2TS      0:00:00.000     0:09:04.877     1 763 837 952   25 897
CHAPTERS:
Number          Time In         Length          Avg Video Rate  Max 1-Sec Rate  Max 1-Sec Time  Max 5-Sec Rate  Max 5-Sec Time  Max 10Sec Rate  Max 10Sec Time  Avg Frame Size  Max Frame Size  Max Frame Time
------          -------         ------          --------------  --------------  --------------  --------------  --------------  --------------  --------------  --------------  --------------  --------------
1               0:00:00.000     0:09:04.877     24 518 kbps     47 444 kbps     00:00:30.029    35 282 kbps     00:03:01.014    34 890 kbps     00:02:56.050    127 836 bytes   726 966 bytes   00:03:57.028
STREAM DIAGNOSTICS:
File            PID             Type            Codec           Language                Seconds                 Bitrate                 Bytes           Packets
----            ---             ----            -----           --------                --------------          --------------          -------------   -----
00100.M2TS      4113 (0x1011)   0x1B            AVC                                     544,794                 24 522                  1 669 915 515   9 083 245
00100.M2TS      4352 (0x1100)   0x81            AC3             eng (English)           544,794                 192                     13 077 504      85 140
QUICK SUMMARY:
Disc Title: The.Atticus.Institute.2015.BluRay.1080p.NovaLan
Disc Size: 21 416 946 654 bytes
Protection: AACS
BD-Java: Yes
Playlist: 00100.MPLS
Size: 1 763 837 952 bytes
Length: 0:09:04.877
Total Bitrate: 25,90 Mbps
Video: MPEG-4 AVC Video / 24518 kbps / 1080p / 23,976 fps / 16:9 / High Profile 4.1
Audio: English / Dolby Digital Audio / 2.0 / 48 kHz / 192 kbps
********************
PLAYLIST: 00107.MPLS
********************
Total   Video
Title                                                           Codec   Length  Movie Size      Disc Size       Bitrate Bitrate Main Audio Track                          Secondary Audio Track
-----                                                           ------  ------- --------------  --------------  ------- ------- ------------------                        ---------------------
00107.MPLS                                                      AVC     0:07:19 1 434 974 208   21 416 946 654  26,11   24,72   DD AC3 2.0 192Kbps
DISC INFO:
Disc Title:     The.Atticus.Institute.2015.BluRay.1080p.NovaLan
Disc Size:      21 416 946 654 bytes
Protection:     AACS
BD-Java:        Yes
BDInfo:         0.5.8
PLAYLIST REPORT:
Name:                   00107.MPLS
Length:                 0:07:19.689 (h:m:s.ms)
Size:                   1 434 974 208 bytes
Total Bitrate:          26,11 Mbps
VIDEO:
Codec                   Bitrate             Description
-----                   -------             -----------
MPEG-4 AVC Video        24721 kbps          1080p / 23,976 fps / 16:9 / High Profile 4.1
AUDIO:
Codec                           Language        Bitrate         Description
-----                           --------        -------         -----------
Dolby Digital Audio             English         192 kbps        2.0 / 48 kHz / 192 kbps
FILES:
Name            Time In         Length          Size            Total Bitrate
----            -------         ------          ----            -------------
00105.M2TS      0:00:00.000     0:01:12.489     237 066 240     26 163
00106.M2TS      0:01:12.489     0:02:11.589     428 034 048     26 022
00107.M2TS      0:03:24.078     0:03:10.440     621 662 208     26 115
00108.M2TS      0:06:34.519     0:00:45.170     148 211 712     26 250
CHAPTERS:
Number          Time In         Length          Avg Video Rate  Max 1-Sec Rate  Max 1-Sec Time  Max 5-Sec Rate  Max 5-Sec Time  Max 10Sec Rate  Max 10Sec Time  Avg Frame Size  Max Frame Size  Max Frame Time
------          -------         ------          --------------  --------------  --------------  --------------  --------------  --------------  --------------  --------------  --------------  --------------
1               0:00:00.000     0:01:12.489     24 773 kbps     45 951 kbps     00:00:01.251    30 016 kbps     00:00:01.292    26 894 kbps     00:00:42.625    129 156 bytes   536 636 bytes   00:00:02.127
2               0:01:12.489     0:02:11.589     24 638 kbps     41 705 kbps     00:01:15.742    31 597 kbps     00:02:36.573    29 921 kbps     00:01:15.742    128 491 bytes   781 700 bytes   00:03:00.763
3               0:03:24.078     0:03:10.440     24 727 kbps     37 875 kbps     00:06:30.598    29 577 kbps     00:03:49.437    28 568 kbps     00:03:45.558    128 943 bytes   500 786 bytes   00:04:28.685
4               0:06:34.519     0:00:45.170     24 855 kbps     30 055 kbps     00:06:48.783    27 093 kbps     00:06:39.857    26 922 kbps     00:06:36.270    129 821 bytes   358 695 bytes   00:06:35.520
STREAM DIAGNOSTICS:
File            PID             Type            Codec           Language                Seconds                 Bitrate                 Bytes           Packets
----            ---             ----            -----           --------                --------------          --------------          -------------   -----
00105.M2TS      4113 (0x1011)   0x1B            AVC                                     72,406                  24 802                  224 472 519     1 220 938
00105.M2TS      4352 (0x1100)   0x81            AC3             eng (English)           72,406                  192                     1 740 288       11 330
00106.M2TS      4113 (0x1011)   0x1B            AVC                                     131,506                 24 653                  405 260 766     2 204 356
00106.M2TS      4352 (0x1100)   0x81            AC3             eng (English)           131,506                 192                     3 158 784       20 565
00107.M2TS      4113 (0x1011)   0x1B            AVC                                     190,357                 24 738                  588 625 153     3 201 661
00107.M2TS      4352 (0x1100)   0x81            AC3             eng (English)           190,357                 192                     4 571 136       29 760
00108.M2TS      4113 (0x1011)   0x1B            AVC                                     45,087                  24 901                  140 337 114     763 328
00108.M2TS      4352 (0x1100)   0x81            AC3             eng (English)           45,087                  192                     1 084 416       7 060
QUICK SUMMARY:
Disc Title: The.Atticus.Institute.2015.BluRay.1080p.NovaLan
Disc Size: 21 416 946 654 bytes
Protection: AACS
BD-Java: Yes
Playlist: 00107.MPLS
Size: 1 434 974 208 bytes
Length: 0:07:19.689
Total Bitrate: 26,11 Mbps
Video: MPEG-4 AVC Video / 24721 kbps / 1080p / 23,976 fps / 16:9 / High Profile 4.1
Audio: English / Dolby Digital Audio / 2.0 / 48 kHz / 192 kbps
********************
PLAYLIST: 00105.MPLS
********************
Total   Video
Title                                                           Codec   Length  Movie Size      Disc Size       Bitrate Bitrate Main Audio Track                          Secondary Audio Track
-----                                                           ------  ------- --------------  --------------  ------- ------- ------------------                        ---------------------
00105.MPLS                                                      AVC     0:03:10 621 662 208     21 416 946 654  26,11   24,73   DD AC3 2.0 192Kbps
DISC INFO:
Disc Title:     The.Atticus.Institute.2015.BluRay.1080p.NovaLan
Disc Size:      21 416 946 654 bytes
Protection:     AACS
BD-Java:        Yes
BDInfo:         0.5.8
PLAYLIST REPORT:
Name:                   00105.MPLS
Length:                 0:03:10.440 (h:m:s.ms)
Size:                   621 662 208 bytes
Total Bitrate:          26,11 Mbps
VIDEO:
Codec                   Bitrate             Description
-----                   -------             -----------
MPEG-4 AVC Video        24727 kbps          1080p / 23,976 fps / 16:9 / High Profile 4.1
AUDIO:
Codec                           Language        Bitrate         Description
-----                           --------        -------         -----------
Dolby Digital Audio             English         192 kbps        2.0 / 48 kHz / 192 kbps
FILES:
Name            Time In         Length          Size            Total Bitrate
----            -------         ------          ----            -------------
00107.M2TS      0:00:00.000     0:03:10.440     621 662 208     26 115
CHAPTERS:
Number          Time In         Length          Avg Video Rate  Max 1-Sec Rate  Max 1-Sec Time  Max 5-Sec Rate  Max 5-Sec Time  Max 10Sec Rate  Max 10Sec Time  Avg Frame Size  Max Frame Size  Max Frame Time
------          -------         ------          --------------  --------------  --------------  --------------  --------------  --------------  --------------  --------------  --------------  --------------
1               0:00:00.000     0:03:10.440     24 727 kbps     37 875 kbps     00:03:06.519    29 577 kbps     00:00:25.358    28 568 kbps     00:00:21.479    128 943 bytes   500 786 bytes   00:01:04.606
STREAM DIAGNOSTICS:
File            PID             Type            Codec           Language                Seconds                 Bitrate                 Bytes           Packets
----            ---             ----            -----           --------                --------------          --------------          -------------   -----
00107.M2TS      4113 (0x1011)   0x1B            AVC                                     190,357                 24 738                  588 625 153     3 201 661
00107.M2TS      4352 (0x1100)   0x81            AC3             eng (English)           190,357                 192                     4 571 136       29 760
QUICK SUMMARY:
Disc Title: The.Atticus.Institute.2015.BluRay.1080p.NovaLan
Disc Size: 21 416 946 654 bytes
Protection: AACS
BD-Java: Yes
Playlist: 00105.MPLS
Size: 621 662 208 bytes
Length: 0:03:10.440
Total Bitrate: 26,11 Mbps
Video: MPEG-4 AVC Video / 24727 kbps / 1080p / 23,976 fps / 16:9 / High Profile 4.1
Audio: English / Dolby Digital Audio / 2.0 / 48 kHz / 192 kbps
********************
PLAYLIST: 00104.MPLS
********************
Total   Video
Title                                                           Codec   Length  Movie Size      Disc Size       Bitrate Bitrate Main Audio Track                          Secondary Audio Track
-----                                                           ------  ------- --------------  --------------  ------- ------- ------------------                        ---------------------
00104.MPLS                                                      AVC     0:02:11 428 034 048     21 416 946 654  26,02   24,64   DD AC3 2.0 192Kbps
DISC INFO:
Disc Title:     The.Atticus.Institute.2015.BluRay.1080p.NovaLan
Disc Size:      21 416 946 654 bytes
Protection:     AACS
BD-Java:        Yes
BDInfo:         0.5.8
PLAYLIST REPORT:
Name:                   00104.MPLS
Length:                 0:02:11.589 (h:m:s.ms)
Size:                   428 034 048 bytes
Total Bitrate:          26,02 Mbps
VIDEO:
Codec                   Bitrate             Description
-----                   -------             -----------
MPEG-4 AVC Video        24638 kbps          1080p / 23,976 fps / 16:9 / High Profile 4.1
AUDIO:
Codec                           Language        Bitrate         Description
-----                           --------        -------         -----------
Dolby Digital Audio             English         192 kbps        2.0 / 48 kHz / 192 kbps
FILES:
Name            Time In         Length          Size            Total Bitrate
----            -------         ------          ----            -------------
00106.M2TS      0:00:00.000     0:02:11.589     428 034 048     26 022
CHAPTERS:
Number          Time In         Length          Avg Video Rate  Max 1-Sec Rate  Max 1-Sec Time  Max 5-Sec Rate  Max 5-Sec Time  Max 10Sec Rate  Max 10Sec Time  Avg Frame Size  Max Frame Size  Max Frame Time
------          -------         ------          --------------  --------------  --------------  --------------  --------------  --------------  --------------  --------------  --------------  --------------
1               0:00:00.000     0:02:11.589     24 638 kbps     41 705 kbps     00:00:03.253    31 597 kbps     00:01:24.083    29 921 kbps     00:00:03.253    128 491 bytes   781 700 bytes   00:01:48.274
STREAM DIAGNOSTICS:
File            PID             Type            Codec           Language                Seconds                 Bitrate                 Bytes           Packets
----            ---             ----            -----           --------                --------------          --------------          -------------   -----
00106.M2TS      4113 (0x1011)   0x1B            AVC                                     131,506                 24 653                  405 260 766     2 204 356
00106.M2TS      4352 (0x1100)   0x81            AC3             eng (English)           131,506                 192                     3 158 784       20 565
QUICK SUMMARY:
Disc Title: The.Atticus.Institute.2015.BluRay.1080p.NovaLan
Disc Size: 21 416 946 654 bytes
Protection: AACS
BD-Java: Yes
Playlist: 00104.MPLS
Size: 428 034 048 bytes
Length: 0:02:11.589
Total Bitrate: 26,02 Mbps
Video: MPEG-4 AVC Video / 24638 kbps / 1080p / 23,976 fps / 16:9 / High Profile 4.1
Audio: English / Dolby Digital Audio / 2.0 / 48 kHz / 192 kbps
********************
PLAYLIST: 00103.MPLS
********************
Total   Video
Title                                                           Codec   Length  Movie Size      Disc Size       Bitrate Bitrate Main Audio Track                          Secondary Audio Track
-----                                                           ------  ------- --------------  --------------  ------- ------- ------------------                        ---------------------
00103.MPLS                                                      AVC     0:01:12 237 066 240     21 416 946 654  26,16   24,77   DD AC3 2.0 192Kbps
DISC INFO:
Disc Title:     The.Atticus.Institute.2015.BluRay.1080p.NovaLan
Disc Size:      21 416 946 654 bytes
Protection:     AACS
BD-Java:        Yes
BDInfo:         0.5.8
PLAYLIST REPORT:
Name:                   00103.MPLS
Length:                 0:01:12.489 (h:m:s.ms)
Size:                   237 066 240 bytes
Total Bitrate:          26,16 Mbps
VIDEO:
Codec                   Bitrate             Description
-----                   -------             -----------
MPEG-4 AVC Video        24773 kbps          1080p / 23,976 fps / 16:9 / High Profile 4.1
AUDIO:
Codec                           Language        Bitrate         Description
-----                           --------        -------         -----------
Dolby Digital Audio             English         192 kbps        2.0 / 48 kHz / 192 kbps
FILES:
Name            Time In         Length          Size            Total Bitrate
----            -------         ------          ----            -------------
00105.M2TS      0:00:00.000     0:01:12.489     237 066 240     26 163
CHAPTERS:
Number          Time In         Length          Avg Video Rate  Max 1-Sec Rate  Max 1-Sec Time  Max 5-Sec Rate  Max 5-Sec Time  Max 10Sec Rate  Max 10Sec Time  Avg Frame Size  Max Frame Size  Max Frame Time
------          -------         ------          --------------  --------------  --------------  --------------  --------------  --------------  --------------  --------------  --------------  --------------
1               0:00:00.000     0:01:12.489     24 773 kbps     45 951 kbps     00:00:01.251    30 016 kbps     00:00:01.292    26 894 kbps     00:00:42.625    129 230 bytes   536 636 bytes   00:00:02.127
STREAM DIAGNOSTICS:
File            PID             Type            Codec           Language                Seconds                 Bitrate                 Bytes           Packets
----            ---             ----            -----           --------                --------------          --------------          -------------   -----
00105.M2TS      4113 (0x1011)   0x1B            AVC                                     72,406                  24 802                  224 472 519     1 220 938
00105.M2TS      4352 (0x1100)   0x81            AC3             eng (English)           72,406                  192                     1 740 288       11 330
QUICK SUMMARY:
Disc Title: The.Atticus.Institute.2015.BluRay.1080p.NovaLan
Disc Size: 21 416 946 654 bytes
Protection: AACS
BD-Java: Yes
Playlist: 00103.MPLS
Size: 237 066 240 bytes
Length: 0:01:12.489
Total Bitrate: 26,16 Mbps
Video: MPEG-4 AVC Video / 24773 kbps / 1080p / 23,976 fps / 16:9 / High Profile 4.1
Audio: English / Dolby Digital Audio / 2.0 / 48 kHz / 192 kbps
********************
PLAYLIST: 00106.MPLS
********************
Total   Video
Title                                                           Codec   Length  Movie Size      Disc Size       Bitrate Bitrate Main Audio Track                          Secondary Audio Track
-----                                                           ------  ------- --------------  --------------  ------- ------- ------------------                        ---------------------
00106.MPLS                                                      AVC     0:00:45 148 211 712     21 416 946 654  26,25   24,85   DD AC3 2.0 192Kbps
DISC INFO:
Disc Title:     The.Atticus.Institute.2015.BluRay.1080p.NovaLan
Disc Size:      21 416 946 654 bytes
Protection:     AACS
BD-Java:        Yes
BDInfo:         0.5.8
PLAYLIST REPORT:
Name:                   00106.MPLS
Length:                 0:00:45.170 (h:m:s.ms)
Size:                   148 211 712 bytes
Total Bitrate:          26,25 Mbps
VIDEO:
Codec                   Bitrate             Description
-----                   -------             -----------
MPEG-4 AVC Video        24855 kbps          1080p / 23,976 fps / 16:9 / High Profile 4.1
AUDIO:
Codec                           Language        Bitrate         Description
-----                           --------        -------         -----------
Dolby Digital Audio             English         192 kbps        2.0 / 48 kHz / 192 kbps
FILES:
Name            Time In         Length          Size            Total Bitrate
----            -------         ------          ----            -------------
00108.M2TS      0:00:00.000     0:00:45.170     148 211 712     26 250
CHAPTERS:
Number          Time In         Length          Avg Video Rate  Max 1-Sec Rate  Max 1-Sec Time  Max 5-Sec Rate  Max 5-Sec Time  Max 10Sec Rate  Max 10Sec Time  Avg Frame Size  Max Frame Size  Max Frame Time
------          -------         ------          --------------  --------------  --------------  --------------  --------------  --------------  --------------  --------------  --------------  --------------
1               0:00:00.000     0:00:45.170     24 855 kbps     30 055 kbps     00:00:14.264    27 093 kbps     00:00:05.338    26 922 kbps     00:00:01.751    129 702 bytes   358 695 bytes   00:00:01.001
STREAM DIAGNOSTICS:
File            PID             Type            Codec           Language                Seconds                 Bitrate                 Bytes           Packets
----            ---             ----            -----           --------                --------------          --------------          -------------   -----
00108.M2TS      4113 (0x1011)   0x1B            AVC                                     45,087                  24 901                  140 337 114     763 328
00108.M2TS      4352 (0x1100)   0x81            AC3             eng (English)           45,087                  192                     1 084 416       7 060
QUICK SUMMARY:
Disc Title: The.Atticus.Institute.2015.BluRay.1080p.NovaLan
Disc Size: 21 416 946 654 bytes
Protection: AACS
BD-Java: Yes
Playlist: 00106.MPLS
Size: 148 211 712 bytes
Length: 0:00:45.170
Total Bitrate: 26,25 Mbps
Video: MPEG-4 AVC Video / 24855 kbps / 1080p / 23,976 fps / 16:9 / High Profile 4.1
Audio: English / Dolby Digital Audio / 2.0 / 48 kHz / 192 kbps
Скриншоты
Скачать

Скачать торрент!

Как скачивать? · Что такое торрент? · Рейтинг и ограничения

Сайт не распространяет и не хранит электронные версии произведений, а лишь предоставляет доступ к создаваемому пользователями каталогу ссылок на торрент-файлы, которые содержат только списки хеш-сумм

[Профиль] [ЛС]
Показать сообщения:    
Ответить на тему

Текущее время: Сегодня 10:04

Часовой пояс: GMT + 4



Вы не можете начинать темы
Вы не можете отвечать на сообщения
Вы не можете редактировать свои сообщения
Вы не можете удалять свои сообщения
Вы не можете голосовать в опросах
Вы не можете прикреплять файлы к сообщениям
Вы не можете скачивать файлы