Зверство на голубом экране / Wild in Blue (Мэттью Берковитц / Matthew Berkowitz) [2014, США, триллер, мелодрама, BDRip 720p] VO (datynet) + Original Eng

Ответить на тему
 
Автор Сообщение

user ®

Стаж: 7 лет 7 месяцев

Сообщений: 20008

Пост Пост: #1 от 11-Июл-2015 23:21

[Цитировать]

Зверство на голубом экране / Wild in Blue
Страна: США
Жанр: триллер, мелодрама
Год выпуска: 2014
Продолжительность: 01:25:28
Перевод: Одноголосый закадровый [datynet]
Cубтитры: нет
Оригинальная аудиодорожка: английский
Внимание! В переводе присутствует нецензурная лексика!
Режиссер: Мэттью Берковитц / Matthew Berkowitz
В ролях: Фрэнк Сермак мл., Шарлотта Эллен Прайс, Стив Рейлсбэк, Карен Блэк, Дэйви Чейз, Маркос Матео Очоа, Андреа Лоуелл, Оуэн Тиг, Кэролайн Митчелл, Эйдан Люк Фридберг
Описание: Во время съемок фильма садистские отношения режиссёра к женщинам, как развлечение убийцы с потенциальной жертвой, заставляют его глубоко задуматься над своей жизнью.
Доп. информация: http://www.imdb.com/title/tt3374816/?ref_=fn_al_tt_1 7.3
http://www.kinopoisk.ru/film/815972/ 9.0
Сэмпл: http://rusfolder.com/43916470
Качество видео: BDRip 720p
Формат видео: MKV
Видео: MPEG-4 AVC, 5799 kb/s, 1280x672, 23.976 fps
Аудио 1: Russian: AC3, 448 kb/s (6 ch), 48.0 KHz
Аудио 2: English: DTS, 1510 kb/s (6 ch), 48.0 KHz
MediaInfo
General
Unique ID : 231006824554268946592263213708768146079 (0xADCA4BCBAE89FB44BA68445999A3729F)
Complete name : D:\Wild.in.Blue.2014.L1.BDRip.720p.mkv
Format : Matroska
Format version : Version 4 / Version 2
File size : 4.63 GiB
Duration : 1h 25mn
Overall bit rate : 7 758 Kbps
Encoded date : UTC 2015-07-08 06:40:48
Writing application : mkvmerge v6.5.0 ('Isn't she lovely') built on Oct 20 2013 12:50:05
Writing library : libebml v1.3.0 + libmatroska v1.4.1
DURATION : 01:25:28.491000000
NUMBER_OF_FRAMES : 480796
NUMBER_OF_BYTES : 967361552
_STATISTICS_WRITING_APP : mkvmerge v7.8.0 ('River Man') 64bit built on Mar 27 2015 16:31:37
_STATISTICS_WRITING_DATE_UTC : 2015-04-26 15:07:31
_STATISTICS_TAGS : BPS DURATION NUMBER_OF_FRAMES NUMBER_OF_BYTES
Video
ID : 1
Format : AVC
Format/Info : Advanced Video Codec
Format profile : High@L4.1
Format settings, CABAC : Yes
Format settings, ReFrames : 5 frames
Codec ID : V_MPEG4/ISO/AVC
Duration : 1h 25mn
Bit rate : 5 799 Kbps
Width : 1 280 pixels
Height : 672 pixels
Display aspect ratio : 1.905
Frame rate mode : Constant
Frame rate : 23.976 fps
Color space : YUV
Chroma subsampling : 4:2:0
Bit depth : 8 bits
Scan type : Progressive
Bits/(Pixel*Frame) : 0.281
Stream size : 3.37 GiB (73%)
Writing library : x264 core 146 r2538 121396c
Encoding settings : cabac=1 / ref=5 / deblock=1:0:0 / analyse=0x3:0x113 / me=umh / subme=8 / psy=1 / psy_rd=1.00:0.00 / mixed_ref=1 / me_range=16 / chroma_me=1 / trellis=1 / 8x8dct=1 / cqm=0 / deadzone=21,11 / fast_pskip=0 / chroma_qp_offset=-2 / threads=12 / lookahead_threads=2 / sliced_threads=0 / nr=0 / decimate=1 / interlaced=0 / bluray_compat=0 / constrained_intra=0 / bframes=3 / b_pyramid=2 / b_adapt=2 / b_bias=0 / direct=3 / weightb=1 / open_gop=0 / weightp=2 / keyint=250 / keyint_min=23 / scenecut=40 / intra_refresh=0 / rc_lookahead=50 / rc=2pass / mbtree=1 / bitrate=5799 / ratetol=1.0 / qcomp=0.60 / qpmin=0 / qpmax=69 / qpstep=4 / cplxblur=20.0 / qblur=0.5 / ip_ratio=1.40 / aq=1:1.00
Language : English
Default : Yes
Forced : No
DURATION : 01:25:28.415000000
NUMBER_OF_FRAMES : 122959
NUMBER_OF_BYTES : 3717341693
_STATISTICS_WRITING_APP : mkvmerge v7.8.0 ('River Man') 64bit built on Mar 27 2015 16:31:37
_STATISTICS_WRITING_DATE_UTC : 2015-04-26 15:07:31
_STATISTICS_TAGS : BPS DURATION NUMBER_OF_FRAMES NUMBER_OF_BYTES
Audio #1
ID : 2
Format : AC-3
Format/Info : Audio Coding 3
Mode extension : CM (complete main)
Format settings, Endianness : Big
Codec ID : A_AC3
Duration : 1h 25mn
Bit rate mode : Constant
Bit rate : 448 Kbps
Channel(s) : 6 channels
Channel positions : Front: L C R, Side: L R, LFE
Sampling rate : 48.0 KHz
Compression mode : Lossy
Stream size : 274 MiB (6%)
Language : Russian
Default : Yes
Forced : No
Audio #2
ID : 3
Format : DTS
Format/Info : Digital Theater Systems
Mode : 16
Format settings, Endianness : Big
Codec ID : A_DTS
Duration : 1h 25mn
Bit rate mode : Constant
Bit rate : 1 509 Kbps
Channel(s) : 6 channels
Channel positions : Front: L C R, Side: L R, LFE
Sampling rate : 48.0 KHz
Bit depth : 24 bits
Compression mode : Lossy
Stream size : 923 MiB (19%)
Language : English
Default : No
Forced : No
Menu
00:00:00.000 : en:00:00:00.000
00:07:02.422 : en:00:07:02.422
00:14:43.883 : en:00:14:43.883
00:23:06.385 : en:00:23:06.385
00:28:54.733 : en:00:28:54.733
00:37:12.230 : en:00:37:12.230
00:42:49.567 : en:00:42:49.567
00:51:16.073 : en:00:51:16.073
00:59:11.548 : en:00:59:11.548
01:05:56.953 : en:01:05:56.953
01:13:44.420 : en:01:13:44.420
01:20:29.825 : en:01:20:29.825
Скриншот c названием фильма Скриншоты
Скачать

Скачать торрент!

Как скачивать? · Что такое торрент? · Рейтинг и ограничения

Сайт не распространяет и не хранит электронные версии произведений, а лишь предоставляет доступ к создаваемому пользователями каталогу ссылок на торрент-файлы, которые содержат только списки хеш-сумм

[Профиль] [ЛС]
Показать сообщения:    
Ответить на тему

Текущее время: Сегодня 07:57

Часовой пояс: GMT + 4



Вы не можете начинать темы
Вы не можете отвечать на сообщения
Вы не можете редактировать свои сообщения
Вы не можете удалять свои сообщения
Вы не можете голосовать в опросах
Вы не можете прикреплять файлы к сообщениям
Вы не можете скачивать файлы