Дьявол носит «Prada» / The Devil Wears Prada (Дэвид Фрэнкел / David Frankel) [2006, США, Франция, комедия, драма, мелодрама, BDRip 1080p] Dub + DVO + AVO (Сербин) + Original Eng + Sub, Rus, Eng

Ответить на тему
 
Автор Сообщение

user ®

Стаж: 7 лет 7 месяцев

Сообщений: 20008

Пост Пост: #1 от 11-Июл-2015 23:21

[Цитировать]

Дьявол носит «Prada» / The Devil Wears Prada
Страна: США, Франция
Жанр: комедия, драма, мелодрама
Год выпуска: 2011
Продолжительность: 01:49:24
Перевод 1: Профессиональный (дублированный)
Перевод 2: Профессиональный (двухголосый закадровый)
Перевод 3: Авторский (одноголосый закадровый) Сербин Юрий
Cубтитры: русские (надписи), русские, английские
Оригинальная аудиодорожка: английский
Режиссер: Дэвид Фрэнкел / David Frankel
В ролях: Мэрил Стрип, Энн Хэтэуэй, Эмили Блант, Стэнли Туччи, Саймон Бэйкер, Адриан Гренье, Трейси Томс, Рич Соммер, Дэниэл Санжата, Дэвид Маршалл Грант
Описание: Мечтающая стать журналисткой провинциальная девушка Андреа по окончании университета получает должность помощницы всесильной Миранды Пристли, деспотичного редактора одного из крупнейших нью-йоркских журналов мод. Андреа всегда мечтала о такой работе, не зная, с каким нервным напряжением это будет связано...
Сэмпл: Скачать
Тип релиза: BDRip 1080p (SbR)
Контейнер: MKV
Видео: 1920x818, 23.976 fps, x264 ~15567 kbps
Аудио 1: Русский DTS 5.1, 48 kHz, 768 kbps |Дубляж|
Аудио 2: Русский AC3 2.0, 48 kHz, 192 kbps |Двухголосый|
Аудио 3: Русский DTS 5.1, 48 kHz, 1509 kbps |Сербин|
Аудио 5: Английский DTS 5.1, 48 kHz, 1509 kbps
Формат субтитров: softsub (SRT)
MediaInfo
General
Unique ID : 234593485665238197210803976040033300130 (0xB07D0FD75F91A625A71A8B4E19442EA2)
Complete name : G:\The.Devil.Wears.Prada.2006.1080p.BluRay.3xRus.Eng-SbR.mkv
Format : Matroska
Format version : Version 4 / Version 2
File size : 14.9 GiB
Duration : 1h 49mn
Overall bit rate : 19.6 Mbps
Movie name : The Devil Wears Prada (2006) - Encode bt SbR
Encoded date : UTC 2015-07-11 06:55:08
Writing application : mkvmerge v8.1.0 ('Psychedelic Postcard') 64bit
Writing library : libebml v1.3.1 + libmatroska v1.4.2
Attachements : cover.jpg / xlog.txt
Video
ID : 1
Format : AVC
Format/Info : Advanced Video Codec
Format profile : High@L4.1
Format settings, CABAC : Yes
Format settings, ReFrames : 5 frames
Codec ID : V_MPEG4/ISO/AVC
Duration : 1h 49mn
Bit rate : 15.2 Mbps
Width : 1 920 pixels
Height : 818 pixels
Display aspect ratio : 2.35:1
Frame rate mode : Constant
Frame rate : 23.976 fps
Color space : YUV
Chroma subsampling : 4:2:0
Bit depth : 8 bits
Scan type : Progressive
Bits/(Pixel*Frame) : 0.403
Stream size : 11.6 GiB (78%)
Writing library : x264 core 146 r2538kMod 121396c
Encoding settings : cabac=1 / ref=5 / deblock=1:-2:-2 / analyse=0x3:0x133 / me=umh / subme=11 / psy=1 / fade_compensate=0.00 / psy_rd=1.00:0.00 / mixed_ref=1 / me_range=32 / chroma_me=1 / trellis=2 / 8x8dct=1 / cqm=0 / deadzone=21,11 / fast_pskip=1 / chroma_qp_offset=-2 / threads=12 / lookahead_threads=2 / sliced_threads=0 / nr=0 / decimate=1 / interlaced=0 / bluray_compat=0 / constrained_intra=0 / fgo=0 / bframes=8 / b_pyramid=2 / b_adapt=2 / b_bias=0 / direct=1 / weightb=1 / open_gop=0 / weightp=2 / keyint=250 / keyint_min=23 / scenecut=40 / intra_refresh=0 / rc_lookahead=60 / rc=crf / mbtree=0 / crf=18.0000 / qcomp=0.70 / qpmin=0 / qpmax=69 / qpstep=4 / vbv_maxrate=62500 / vbv_bufsize=78125 / crf_max=0.0 / nal_hrd=none / filler=0 / ip_ratio=1.40 / pb_ratio=1.30 / aq=1:0.80
Language : English
Default : Yes
Forced : No
Color range : Limited
Color primaries : BT.709
Transfer characteristics : BT.709
Matrix coefficients : BT.709
Audio #1
ID : 2
Format : DTS
Format/Info : Digital Theater Systems
Mode : 16
Format settings, Endianness : Big
Codec ID : A_DTS
Duration : 1h 49mn
Bit rate mode : Constant
Bit rate : 768 Kbps
Channel(s) : 6 channels
Channel positions : Front: L C R, Side: L R, LFE
Sampling rate : 48.0 KHz
Bit depth : 24 bits
Compression mode : Lossy
Stream size : 601 MiB (4%)
Title : Дубляж
Language : Russian
Default : Yes
Forced : No
Audio #2
ID : 3
Format : AC-3
Format/Info : Audio Coding 3
Mode extension : CM (complete main)
Format settings, Endianness : Big
Codec ID : A_AC3
Duration : 1h 49mn
Bit rate mode : Constant
Bit rate : 192 Kbps
Channel(s) : 2 channels
Channel positions : Front: L R
Sampling rate : 48.0 KHz
Compression mode : Lossy
Stream size : 150 MiB (1%)
Title : Двухголосый
Language : Russian
Default : No
Forced : No
Audio #3
ID : 4
Format : DTS
Format/Info : Digital Theater Systems
Mode : 16
Format settings, Endianness : Big
Codec ID : A_DTS
Duration : 1h 49mn
Bit rate mode : Constant
Bit rate : 1 509 Kbps
Channel(s) : 6 channels
Channel positions : Front: L C R, Side: L R, LFE
Sampling rate : 48.0 KHz
Bit depth : 24 bits
Compression mode : Lossy
Stream size : 1.15 GiB (8%)
Title : Сербин
Language : Russian
Default : No
Forced : No
Audio #4
ID : 5
Format : DTS
Format/Info : Digital Theater Systems
Mode : 16
Format settings, Endianness : Big
Codec ID : A_DTS
Duration : 1h 49mn
Bit rate mode : Constant
Bit rate : 1 509 Kbps
Channel(s) : 6 channels
Channel positions : Front: L C R, Side: L R, LFE
Sampling rate : 48.0 KHz
Bit depth : 24 bits
Compression mode : Lossy
Stream size : 1.15 GiB (8%)
Language : English
Default : No
Forced : No
Text #1
ID : 6
Format : UTF-8
Codec ID : S_TEXT/UTF8
Codec ID/Info : UTF-8 Plain Text
Title : Captions
Language : Russian
Default : Yes
Forced : No
Text #2
ID : 7
Format : UTF-8
Codec ID : S_TEXT/UTF8
Codec ID/Info : UTF-8 Plain Text
Language : Russian
Default : No
Forced : No
Text #3
ID : 8
Format : UTF-8
Codec ID : S_TEXT/UTF8
Codec ID/Info : UTF-8 Plain Text
Language : English
Default : No
Forced : No
Menu
00:00:00.000 : en:Main Titles (Suddenly I See)
00:03:27.707 : en:Appointment With Emily
00:04:37.193 : en:The Dragon Lady
00:10:00.558 : en:Hired
00:11:50.334 : en:The Early Bird
00:14:55.811 : en:I'm Not Emily
00:18:05.626 : en:Errand Girl
00:19:45.976 : en:The Lunch Line
00:21:49.725 : en:From A Pile Of Stuff
00:24:29.426 : en:Sticking It Out
00:27:21.431 : en:Dinner And Disaster
00:30:20.193 : en:Poor You
00:34:43.790 : en:The New Andy
00:38:11.080 : en:Exciting Presents
00:40:19.792 : en:Pickup For Miranda
00:43:28.439 : en:The Preview
00:45:12.584 : en:Delivering The Book
00:48:22.774 : en:The Impossible Manuscript
00:54:20.465 : en:Hanging By A Thread
00:57:19.978 : en:An Incubus Of Viral Plague
01:00:52.523 : en:The Benefit
01:06:46.711 : en:Miranda's Choice
01:09:50.060 : en:Telling Emiliy
01:12:54.578 : en:One Of Them
01:17:34.483 : en:Paris
01:20:04.007 : en:Another Divorce
01:23:33.299 : en:The Dream Job
01:26:07.245 : en:Dinner With Christian
01:28:29.929 : en:The New Runway
01:31:40.411 : en:The Bit Announcement
01:35:25.177 : en:To Be Us
01:39:27.878 : en:Sorry
01:41:32.878 : en:The Job Interview
01:42:39.236 : en:Andy's Imposition
01:43:55.395 : en:A Secret Smile
01:45:20.314 : en:End Titles
xlog
raw [info]: 1920x818p 1:1 @ 24000/1001 fps (cfr)
x264 [info]: using SAR=1/1
x264 [info]: using cpu capabilities: MMX2 SSE2Fast SSSE3 SSE4.2 AVX
x264 [info]: profile High, level 4.1
x264 [info]: frame I:1193 Avg QP:16.32 size:219863
x264 [info]: frame P:32860 Avg QP:16.89 size:117030
x264 [info]: frame B:123335 Avg QP:19.46 size: 70263
x264 [info]: consecutive B-frames: 2.3% 2.7% 4.1% 16.6% 13.9% 49.9% 6.1% 3.0% 1.4%
x264 [info]: mb I I16..4: 3.4% 91.2% 5.4%
x264 [info]: mb P I16..4: 0.7% 36.7% 1.2% P16..4: 18.7% 24.0% 8.8% 0.7% 0.0% skip: 9.1%
x264 [info]: mb B I16..4: 0.2% 7.3% 0.2% B16..8: 39.0% 23.8% 4.9% direct: 8.9% skip:15.8% L0:44.5% L1:41.8% BI:13.8%
x264 [info]: 8x8 transform intra:95.2% inter:67.8%
x264 [info]: coded y,uvDC,uvAC intra: 95.2% 97.1% 91.5% inter: 51.8% 57.4% 32.9%
x264 [info]: i16 v,h,dc,p: 48% 11% 5% 35%
x264 [info]: i8 v,h,dc,ddl,ddr,vr,hd,vl,hu: 10% 6% 10% 11% 13% 13% 12% 12% 12%
x264 [info]: i4 v,h,dc,ddl,ddr,vr,hd,vl,hu: 30% 6% 10% 6% 11% 12% 9% 9% 8%
x264 [info]: i8c dc,h,v,p: 61% 13% 11% 15%
x264 [info]: Weighted P-Frames: Y:1.4% UV:1.1%
x264 [info]: ref P L0: 45.9% 10.4% 22.9% 11.6% 8.9% 0.4% 0.0%
x264 [info]: ref B L0: 71.0% 20.6% 6.9% 1.4%
x264 [info]: ref B L1: 87.1% 12.9%
x264 [info]: kb/s:15567.43
encoded 157388 frames, 3.94 fps, 15567.43 kb/s, duration 11:05:25.73
Скриншоты
Encode vs Source vs [url=http://***/forum/viewtopic.php?t=2914055]Gaga500[/url]





Скачать

Скачать торрент!

Как скачивать? · Что такое торрент? · Рейтинг и ограничения

Сайт не распространяет и не хранит электронные версии произведений, а лишь предоставляет доступ к создаваемому пользователями каталогу ссылок на торрент-файлы, которые содержат только списки хеш-сумм

[Профиль] [ЛС]
Показать сообщения:    
Ответить на тему

Текущее время: Сегодня 18:21

Часовой пояс: GMT + 4



Вы не можете начинать темы
Вы не можете отвечать на сообщения
Вы не можете редактировать свои сообщения
Вы не можете удалять свои сообщения
Вы не можете голосовать в опросах
Вы не можете прикреплять файлы к сообщениям
Вы не можете скачивать файлы