WTF! Какого черта? / N\'importe qui (Рафаэль Фридман / Raphaël Frydman) [2014, Франция, комедия, BDRip 720p] Dub + Original Fre

Ответить на тему
 
Автор Сообщение

user ®

Стаж: 7 лет 7 месяцев

Сообщений: 20008

Пост Пост: #1 от 11-Июл-2015 17:09

[Цитировать]

WTF! Какого черта? / N'importe qui
Страна: Франция
Студия: Why Not Productions
Жанр: комедия
Год выпуска: 2014
Продолжительность: 01:21:03
Перевод: Профессиональный (дублированный)
Cубтитры: нет
Оригинальная аудиодорожка: французский
Режиссер: Рафаэль Фридман / Raphaël Frydman
В ролях: Реми Гайяр, Патрик Рейналь, Франк Брунэо, Элбан Иванофф, Николь Феррони, Сильвен Катан, Бриджитт Моати
Описание: Реми Гайяр — реальный персонаж Всемирной сети, троллер, провокатор, самый популярный комик инета Европы. Полтора миллиарда просмотров и миллионы фанатов. Пришел день, и он решил остепениться: женился, устроился на работу на автостоянке, пообещал беременной жене, что тоже «уходит в декрет» и бросает свои шалости.

Тип релиза: BDRip 720p
Контейнер: MKV
Видео: MPEG-4 AVC, 6975 Кбит/с, 1280x690, 24.000 fps
Аудио: Rus, AC3, 384 kb/s (6 ch), 48 kHz
Аудио 2: Fre, DTS, 1510 kb/s (6 ch), 48 kHz
MediaInfo
x264 [info]: frame I:929 Avg QP:14.17 size:172177
x264 [info]: frame P:26800 Avg QP:15.79 size: 65988
x264 [info]: frame B:88983 Avg QP:17.62 size: 27200
Format : Matroska
Format version : Version 4 / Version 2
File size : 5.12 GiB
Duration : 1h 21mn
Overall bit rate : 9 048 Kbps
Movie name : WTF! Какого черта? (Tonik)
Encoded date : UTC 2015-07-10 00:09:47
Writing application : mkvmerge v7.1.0 ('Good Love') 64bit built on Jul 27 2014 13:06:55
Writing library : libebml v1.3.0 + libmatroska v1.4.1
_STATISTICS_WRITING_APP : mkvmerge v7.1.0 ('Good Love') 64bit built on Jul 27 2014 13:06:55
_STATISTICS_WRITING_DATE_UTC : 2015-07-10 00:09:47
_STATISTICS_TAGS : BPS DURATION NUMBER_OF_FRAMES NUMBER_OF_BYTES
DURATION : 01:21:02.998000000
NUMBER_OF_FRAMES : 455906
NUMBER_OF_BYTES : 917282872
Video
ID : 1
Format : AVC
Format/Info : Advanced Video Codec
Format profile : High@L4.1
Format settings, CABAC : Yes
Format settings, ReFrames : 9 frames
Codec ID : V_MPEG4/ISO/AVC
Duration : 1h 21mn
Bit rate : 6 975 Kbps
Width : 1 280 pixels
Height : 690 pixels
Display aspect ratio : 1.85:1
Frame rate mode : Constant
Frame rate : 24.000 fps
Color space : YUV
Chroma subsampling : 4:2:0
Bit depth : 8 bits
Scan type : Progressive
Bits/(Pixel*Frame) : 0.329
Stream size : 3.95 GiB (77%)
Title : Tonik
Writing library : x264 core 146 r2538 121396c
Encoding settings : cabac=1 / ref=9 / deblock=1:-3:-3 / analyse=0x3:0x133 / me=umh / subme=11 / psy=1 / psy_rd=1.00:0.00 / mixed_ref=1 / me_range=32 / chroma_me=1 / trellis=2 / 8x8dct=1 / cqm=0 / deadzone=21,11 / fast_pskip=0 / chroma_qp_offset=-2 / threads=12 / lookahead_threads=3 / sliced_threads=0 / nr=0 / decimate=1 / interlaced=0 / bluray_compat=0 / constrained_intra=0 / bframes=11 / b_pyramid=2 / b_adapt=2 / b_bias=0 / direct=1 / weightb=1 / open_gop=0 / weightp=2 / keyint=250 / keyint_min=24 / scenecut=40 / intra_refresh=0 / rc=crf / mbtree=0 / crf=15.5 / qcomp=0.60 / qpmin=0 / qpmax=69 / qpstep=4 / ip_ratio=1.40 / pb_ratio=1.30 / aq=1:1.00
Language : English
Default : Yes
Forced : No
DURATION : 01:21:03.000000000
NUMBER_OF_FRAMES : 116712
NUMBER_OF_BYTES : 4348776907
_STATISTICS_WRITING_APP : mkvmerge v7.1.0 ('Good Love') 64bit built on Jul 27 2014 13:06:55
_STATISTICS_WRITING_DATE_UTC : 2015-07-10 00:09:47
_STATISTICS_TAGS : BPS DURATION NUMBER_OF_FRAMES NUMBER_OF_BYTES
Audio #1
ID : 2
Format : AC-3
Format/Info : Audio Coding 3
Mode extension : CM (complete main)
Format settings, Endianness : Big
Codec ID : A_AC3
Duration : 1h 21mn
Bit rate mode : Constant
Bit rate : 384 Kbps
Channel(s) : 6 channels
Channel positions : Front: L C R, Side: L R, LFE
Sampling rate : 48.0 KHz
Bit depth : 16 bits
Compression mode : Lossy
Stream size : 223 MiB (4%)
Language : Russian
Default : Yes
Forced : No
Audio #2
ID : 3
Format : DTS
Format/Info : Digital Theater Systems
Mode : 16
Format settings, Endianness : Big
Codec ID : A_DTS
Duration : 1h 21mn
Bit rate mode : Constant
Bit rate : 1 509 Kbps
Channel(s) : 6 channels
Channel positions : Front: L C R, Side: L R, LFE
Sampling rate : 48.0 KHz
Bit depth : 24 bits
Compression mode : Lossy
Stream size : 875 MiB (17%)
Language : French
Default : No
Forced : No
Menu
00:00:00.000 : en:
00:07:42.208 : en:
00:14:06.916 : en:
00:21:37.833 : en:
00:27:09.958 : en:
00:35:40.666 : en:
00:43:02.208 : en:
00:47:22.833 : en:
00:55:55.583 : en:
01:01:43.083 : en:
01:07:54.291 : en:
01:16:37.375 : en:
Скриншоты
Скачать

Скачать торрент!

Как скачивать? · Что такое торрент? · Рейтинг и ограничения

Сайт не распространяет и не хранит электронные версии произведений, а лишь предоставляет доступ к создаваемому пользователями каталогу ссылок на торрент-файлы, которые содержат только списки хеш-сумм

[Профиль] [ЛС]
Показать сообщения:    
Ответить на тему

Текущее время: Сегодня 23:15

Часовой пояс: GMT + 4



Вы не можете начинать темы
Вы не можете отвечать на сообщения
Вы не можете редактировать свои сообщения
Вы не можете удалять свои сообщения
Вы не можете голосовать в опросах
Вы не можете прикреплять файлы к сообщениям
Вы не можете скачивать файлы