Снайпер (Андрей Бенкендорф) [1992, детектив, DVB]

Ответить на тему
 
Автор Сообщение

user ®

Стаж: 7 лет 7 месяцев

Сообщений: 20008

Пост Пост: #1 от 11-Июл-2015 17:09

[Цитировать]

Снайпер Жанр: детектив
Год выпуска: 1992
Продолжительность: 01:33:37-Режиссёр: Андрей Бенкендорф
В ролях: Николай Ерёменко младший, Екатерина Стриженова, Армен Джигарханян, Александр Стриженов, Арнис Лицитис, Матлюба Алимова, Елена Аржаник, Наталья Сумская,
Николай Павлов, Тыну Карк
-Описание: У Джея Бенсона позади вьетнамская война, на которой он был отличным снайпером. Вернувшись домой и женившись на очаровательной девушке, он открывает школу по стрельбе. Для полного счастья ему не хватает только денег, и он соглашается на сомнительное предложение богатого клиента…-Доп. информация:
Присутствуют баннеры с названием фильма после рекламы (смотрим второй скрин)
Есть надпись о вреде курения (смотрим первый скрин)

Цензура подрезала некоторые сцены
В семплах и фото - сравнение с DVD сделанного из VHS-Сэмплы для сравнения:
Мой
DVD-Качество видео: DVB
Формат видео: MPEG-PS
Видео: MPEG Video, 720x576, 4:3, 25,000 кадров/сек, 5079 Кбит/сек
Аудио: MP2, 48,0 КГц, 256 Кбит/сек, 2 канала
Сравнение с DVD
[url=http://***/forum/viewtopic.php?t=1388866]DVD[/url]
6 скринов
MediaInfo
Общее
Полное имя : D:\с диска Е\инет\Раздачи\Снайпер-2015.07.11\Снайпер-2015.07.11.mpg
Формат : MPEG-PS
Размер файла : 3,56 Гбайт
Продолжительность : 1 ч. 33 м.
Режим общего битрейта : Переменный
Общий поток : 5444 Кбит/сек
Видео
Идентификатор : 224 (0xE0)
Формат : MPEG Video
Версия формата : Version 2
Профиль формата : Main@Main
Параметр BVOP формата : Да
Параметр матрицы формата : Выборочная
Параметр GOP формата : Variable
Структура изображения : Frame
Продолжительность : 1 ч. 33 м.
Вид битрейта : Переменный
Битрейт : 5079 Кбит/сек
Максимальный битрейт : 15,0 Мбит/сек
Ширина : 720 пикселей
Высота : 576 пикселей
Соотношение сторон : 4:3
Частота кадров : 25,000 кадров/сек
Стандарт вещания : PAL
Цветовое пространство : YUV
Субдискретизация насыщенности : 4:2:0
Битовая глубина : 8 бит
Тип развёртки : Чересстрочная
Порядок развёртки : Верхнее поле первое
Метод сжатия : С потерями
Бит/(Пиксели*Кадры) : 0.490
Временной код первого кадра : 00:00:00:00
Оригинал временного кода : Group of pictures header
GOP, открыто/закрыто : Открыто
GOP, открыто/закрыто на первом кадре : Закрыто
Размер потока : 3,32 Гбайт (93%)
Аудио
Идентификатор : 192 (0xC0)
Формат : MPEG Audio
Версия формата : Version 1
Профиль формата : Layer 2
Продолжительность : 1 ч. 33 м.
Вид битрейта : Постоянный
Битрейт : 256 Кбит/сек
Каналы : 2 канала
Частота : 48,0 КГц
Метод сжатия : С потерями
Задержка видео : 3 мс.
Размер потока : 171 Мбайт (5%)
Скриншоты
Скачать

Скачать торрент!

Как скачивать? · Что такое торрент? · Рейтинг и ограничения

Сайт не распространяет и не хранит электронные версии произведений, а лишь предоставляет доступ к создаваемому пользователями каталогу ссылок на торрент-файлы, которые содержат только списки хеш-сумм

[Профиль] [ЛС]
Показать сообщения:    
Ответить на тему

Текущее время: Сегодня 08:06

Часовой пояс: GMT + 4



Вы не можете начинать темы
Вы не можете отвечать на сообщения
Вы не можете редактировать свои сообщения
Вы не можете удалять свои сообщения
Вы не можете голосовать в опросах
Вы не можете прикреплять файлы к сообщениям
Вы не можете скачивать файлы