Женщина в золотом / Woman in Gold (Саймон Кертис / Simon Curtis) [2015, США, Великобритания, драма, HDRip] MVO

Ответить на тему
 
Автор Сообщение

user ®

Стаж: 7 лет 7 месяцев

Сообщений: 20008

Пост Пост: #1 от 11-Июл-2015 04:48

[Цитировать]

Женщина в золотом / Woman in Gold
Страна: США, Великобритания
Жанр: драма
Год выпуска: 2015
Продолжительность: 01:49:18
Перевод: Любительский (многоголосый закадровый)
Cубтитры: нет
Оригинальная аудиодорожка: нет
Режиссер: Саймон Кертис / Simon Curtis
В ролях: Хелен Миррен, Райан Рейнольдс, Даниэль Брюль, Кэти Холмс, Татьяна Маслани,
Макс Айронс, Чарльз Дэнс, Элизабет МакГоверн, Джонатан Прайс, Антье Трауэ
Описание: История Марии Альтман, которая пытается добиться справедливости — вернуть ценности, отобранные у ее семьи нацистами несколько десятилетий назад. Среди культурного достояния женщины известная картина Густава Климта «Портрет Адели Блох-Бауэр», которую иногда называют «Золотая Адель». Вместе с неопытным, но отважным молодым адвокатом, женщина пытается доказать свои права на наследие предков.
Доп. информация: http://www.imdb.com/title/tt2404425/?ref_=fn_al_tt_1 7.4
http://www.kinopoisk.ru/film/683746/ 8.0
Сэмпл: http://sendfile.su/1136176
Качество видео: HDRip
Формат видео: AVI
Видео: XvID,1 569 Kbps , 720x304, 23.976 fps
Аудио: MP3, 2 ch, 192 Кбит/с, 48.0 KHz
MediaInfo
General
Complete name : D:\Woman.In.Gold.2015.1HDRip..avi
Format : AVI
Format/Info : Audio Video Interleave
File size : 1.35 GiB
Duration : 1h 49mn
Overall bit rate : 1 771 Kbps
Writing application : VirtualDubMod 1.5.10.2 (build 2540/release)
Writing library : VirtualDubMod build 2540/release
Video
ID : 0
Format : MPEG-4 Visual
Format profile : Advanced Simple@L5
Format settings, BVOP : 4
Format settings, QPel : No
Format settings, GMC : 3 warppoints
Format settings, Matrix : Default (MPEG)
Codec ID : XVID
Codec ID/Hint : XviD
Duration : 1h 49mn
Bit rate : 1 569 Kbps
Width : 720 pixels
Height : 304 pixels
Display aspect ratio : 2.35:1
Frame rate : 23.976 fps
Color space : YUV
Chroma subsampling : 4:2:0
Bit depth : 8 bits
Scan type : Progressive
Compression mode : Lossy
Bits/(Pixel*Frame) : 0.299
Stream size : 1.20 GiB (89%)
Writing library : XviD 1.2.1 (UTC 2008-12-04)
Audio
ID : 1
Format : MPEG Audio
Format version : Version 1
Format profile : Layer 3
Mode : Joint stereo
Codec ID : 55
Codec ID/Hint : MP3
Duration : 1h 49mn
Bit rate mode : Constant
Bit rate : 192 Kbps
Channel(s) : 2 channels
Sampling rate : 48.0 KHz
Compression mode : Lossy
Stream size : 150 MiB (11%)
Alignment : Aligned on interleaves
Interleave, duration : 42 ms (1.00 video frame)
Interleave, preload duration : 504 ms
Writing library : LAME3.99.5ЄЄЄЄЄЄЄЄЄЄ
Скриншот c названием фильма Скриншоты
Скачать

Скачать торрент!

Как скачивать? · Что такое торрент? · Рейтинг и ограничения

Сайт не распространяет и не хранит электронные версии произведений, а лишь предоставляет доступ к создаваемому пользователями каталогу ссылок на торрент-файлы, которые содержат только списки хеш-сумм

[Профиль] [ЛС]
Показать сообщения:    
Ответить на тему

Текущее время: Сегодня 14:13

Часовой пояс: GMT + 4



Вы не можете начинать темы
Вы не можете отвечать на сообщения
Вы не можете редактировать свои сообщения
Вы не можете удалять свои сообщения
Вы не можете голосовать в опросах
Вы не можете прикреплять файлы к сообщениям
Вы не можете скачивать файлы