Двадцать / Двадцатник / Twenty / Seumool (Ли Бён Хон / Lee Byeong Heon) [2015, Южная Корея, Комедия, драма, DVDRip-AVC] MVO (XDub)

Ответить на тему
 
Автор Сообщение

user ®

Стаж: 13 лет

Сообщений: 15071

Пост Пост: #1 от 10-Июл-2015 22:36

[Цитировать]

Двадцать / Двадцатник / Twenty / Seumool
Страна: Южная Корея
Жанр: Комедия, драма
Год выпуска: 2015
Продолжительность: 01:55:46
Перевод: Любительский (многоголосый закадровый) XDub
Cубтитры: нет
Оригинальная аудиодорожка: нет
Режиссер: Ли Бён Хон / Lee Byeong Heon
В ролях: Ким У Бин, Ли Чун Хо, Кан Ха Ныль, Чон Со Мин, Мин Хё Рин
Описание: Фильм рассказывает о трех друзьях, которым только что исполнилось двадцать. Это возраст, когда ты уже не ребенок, но еще и не взрослый. Можно делать все, что хочешь, и любить кого хочешь. А впереди столько возможностей, главное их не упустить…
Доп. информация: Перевод на русский язык: Zipper. Текст читали: Anzen, Gyllor, Robi Ainer, MIX-MAN, Elrid, Amikiri, Kurisu, Mayumi, Izanami
Внимание: присутствует ненормативная лексика!
Сэмпл: http://multi-up.com/1057857
Качество видео: DVDRip-AVC
Формат видео: MKV
Видео: AVC, 856x480, 2400 kbps, 23.976 fps
Аудио: AC-3, 192 kbps, 48 kHZ, 2 ch
MediaInfo
Format: Matroska
Format version: Version 4 / Version 2
File size: 2.11 GiB
Duration: 1h 55mn
Overall bit rate: 2 604 Kbps
Encoded date: UTC 2015-07-10 05:57:26
Writing application: mkvmerge v7.7.0 ('Six Voices') 64bit built on Feb 28 2015 23:39:33
Writing library: libebml v1.3.1 + libmatroska v1.4.2
DURATION: 01:55:46.112000000
NUMBER_OF_FRAMES: 217066
NUMBER_OF_BYTES: 166706688
_STATISTICS_WRITING_APP: mkvmerge v7.7.0 ('Six Voices') 64bit built on Feb 28 2015 23:39:33
_STATISTICS_WRITING_DATE_UTC: 2015-07-10 05:57:26
_STATISTICS_TAGS: BPS DURATION NUMBER_OF_FRAMES NUMBER_OF_BYTES
Format: AVC
Format/Info: Advanced Video Codec
Format profile: High@L3.0
Format settings, CABAC: No
Format settings, ReFrames: 1 frame
Codec ID: V_MPEG4/ISO/AVC
Duration: 1h 55mn
Bit rate: 2 400 Kbps
Width: 856 pixels
Height: 480 pixels
Display aspect ratio: 16:9
Frame rate mode: Constant
Frame rate: 23.976 fps
Color space: YUV
Chroma subsampling: 4:2:0
Bit depth: 8 bits
Scan type: Progressive
Bits/(Pixel*Frame): 0.244
Stream size: 1.91 GiB (91%)
Writing library: x264 core 116 r2019 9cc407d
Encoding settings: cabac=0 / ref=1 / deblock=1:0:0 / analyse=0x3:0x113 / me=hex / subme=7 / psy=1 / psy_rd=1.00:0.00 / mixed_ref=0 / me_range=16 / chroma_me=1 / trellis=1 / 8x8dct=1 / cqm=0 / deadzone=21,11 / fast_pskip=1 / chroma_qp_offset=-2 / threads=6 / sliced_threads=0 / nr=0 / decimate=1 / interlaced=0 / bluray_compat=0 / constrained_intra=0 / bframes=0 / weightp=2 / keyint=250 / keyint_min=23 / scenecut=40 / intra_refresh=0 / rc_lookahead=40 / rc=abr / mbtree=1 / bitrate=2400 / ratetol=1.0 / qcomp=0.60 / qpmin=0 / qpmax=69 / qpstep=4 / ip_ratio=1.40 / aq=1:1.00
Default: Yes
Forced: No
Format: AC-3
Format/Info: Audio Coding 3
Mode extension: CM (complete main)
Format settings, Endianness: Big
Codec ID: A_AC3
Duration: 1h 55mn
Bit rate mode: Constant
Bit rate: 192 Kbps
Channel(s): 2 channels
Channel positions: Front: L R
Sampling rate: 48.0 KHz
Bit depth: 16 bits
Compression mode: Lossy
Stream size: 159 MiB (7%)
Default: Yes
Forced: No
Скриншот c названием фильма Скриншоты
Скачать

Скачать торрент! Двадцать / Двадцатник / Twenty / Seumool (Ли Бён Хон / Lee Byeong Heon) [2015, Южная Корея, Комедия, драма, DVDRip-AVC] MVO (XDub)

Как скачивать? · Что такое торрент? · Рейтинг и ограничения

Сайт не распространяет и не хранит электронные версии произведений, а лишь предоставляет доступ к создаваемому пользователями каталогу ссылок на торрент-файлы, которые содержат только списки хеш-сумм

[Профиль] [ЛС]
Показать сообщения:    
Ответить на тему

Текущее время: Сегодня 16:29

Часовой пояс: GMT + 4



Вы не можете начинать темы
Вы не можете отвечать на сообщения
Вы не можете редактировать свои сообщения
Вы не можете удалять свои сообщения
Вы не можете голосовать в опросах
Вы не можете прикреплять файлы к сообщениям
Вы не можете скачивать файлы