Дальняя дорога / The Longest Ride (Джордж Тиллман мл. / George Tillman Jr.) [2015, США, драма, мелодрама, BDRip 1080p] Dub + Sub Rus, Ukr, Eng + Original Eng

Ответить на тему
 
Автор Сообщение

user ®

Стаж: 7 лет 7 месяцев

Сообщений: 20008

Пост Пост: #1 от 10-Июл-2015 22:36

[Цитировать]

Дальняя дорога / The Longest Ride Страна: США
Студия: Fox 2000 Pictures, Temple Hill Entertainment
Жанр: драма, мелодрама
Год выпуска: 2015
Продолжительность: 02:08:18
Перевод: Профессиональный (дублированный) iTunes Russia
Cубтитры: русские (forced, full), украинские (full), английские (full, SDH, Commentary)
Оригинальная аудиодорожка: английский
Режиссер: Джордж Тиллман мл. / George Tillman Jr.
В ролях: Скотт Иствуд, Бритт Робертсон, Алан Алда, Джек Хьюстон, Уна Чаплин, Мелисса Бенойст, Лолита Давидович, Элеа Оберон, Кейт Форбс, Тьяго Риани
Описание: Люк — экс-чемпион по родео, раздумывающий над возвращением в спорт. София — выпускница колледжа, получившая заманчивое предложение о работе в сфере искусства в Нью-Йорке. В то время как молодые люди пытаются сделать нелегкий выбор между чувствами и мечтами, жизнь сталкивает их со стариком Айрой. Воспоминания нового друга о его полувековых отношениях с женой вдохновляют Софию и Люка на главные решения в их жизни. Два поколения, две истории, вечная любовь.

Тип релиза: BDRip 1080p [WiKi]
Контейнер: MKV
Видео: AVC, 1920x800, 13500 kbps, 23.976 fps
Аудио 1: Russian: 48 kHz, AC3, 3/2 (L,C,R,l,r) + LFE ch, ~384.00 kbps avg |iTunes Russia|
Аудио 2: Ukrainian: 48 kHz, AC3, 2/0 (L,R) ch, ~192.00 kbps avg |iTunes Russia|
Аудио 3: English: 48 kHz, DTS, 3/2 (L,C,R,l,r) + LFE ch, ~1536.00 kbps avg |Original|
Аудио 4: English: 48 kHz, AC3, 2/0 (L,R) ch, ~192.00 kbps avg |Commentary by George Tillman,Jr. and Oona Chaplin|
Чаптеры: есть

MediaInfo
General
Unique ID : 177490891814591836990461541333008648848 (0x858780995D913DD085C1E213195C0A90)
Complete name : D:\\The.Longest.Ride.2015.1080p.BluRay.DTS-ES.x264-Talian-.mkv
Format : Matroska
Format version : Version 2
File size : 14.1 GiB
Duration : 2h 8mn
Overall bit rate : 15.8 Mbps
Movie name : The Longest Ride-Talian-
Encoded date : UTC 2015-07-10 15:24:29
Writing application : mkvmerge v5.7.0 ('The Whirlwind') built on Jul 8 2012 20:08:51
Writing library : libebml v1.2.3 + libmatroska v1.3.0
Video
ID : 1
Format : AVC
Format/Info : Advanced Video Codec
Format profile : High@L4.1
Format settings, CABAC : Yes
Format settings, ReFrames : 5 frames
Codec ID : V_MPEG4/ISO/AVC
Duration : 2h 8mn
Bit rate : 13.5 Mbps
Width : 1 920 pixels
Height : 800 pixels
Display aspect ratio : 2.40:1
Frame rate : 23.976 fps
Color space : YUV
Chroma subsampling : 4:2:0
Bit depth : 8 bits
Scan type : Progressive
Bits/(Pixel*Frame) : 0.367
Stream size : 11.8 GiB (84%)
Title : WiKi
Writing library : x264 core 142 r2431+42 c69a006 tMod [8-bit@all X86_64]
Encoding settings : cabac=1 / ref=5 / deblock=1:-2:-2 / analyse=0x3:0x133 / me=umh / subme=11 / psy=1 / fade_compensate=0.00 / psy_rd=1.05:0.05 / mixed_ref=1 / me_range=64 / chroma_me=1 / trellis=2 / 8x8dct=1 / cqm=0 / deadzone=21,11 / fast_pskip=0 / chroma_qp_offset=-3 / threads=12 / lookahead_threads=3 / sliced_threads=0 / nr=0 / decimate=0 / interlaced=0 / bluray_compat=0 / constrained_intra=0 / fgo=0 / bframes=10 / b_pyramid=2 / b_adapt=2 / b_bias=0 / direct=3 / weightb=1 / open_gop=0 / weightp=2 / keyint=250 / keyint_min=23 / scenecut=40 / intra_refresh=0 / rc_lookahead=120 / rc=2pass / mbtree=1 / bitrate=13500 / ratetol=1.0 / qcomp=0.70 / qpmin=0:0:0 / qpmax=69:69:69 / qpstep=4 / cplxblur=20.0 / qblur=0.5 / vbv_maxrate=50000 / vbv_bufsize=50000 / nal_hrd=none / filler=0 / ip_ratio=1.40 / aq=1:0.80 / aq-sensitivity=10.00 / aq-factor=1.00:1.00:1.00 / aq2=0 / aq3=0
Language : English
Default : Yes
Forced : No
Audio #1
ID : 2
Format : AC-3
Format/Info : Audio Coding 3
Mode extension : CM (complete main)
Format settings, Endianness : Big
Codec ID : A_AC3
Duration : 2h 8mn
Bit rate mode : Constant
Bit rate : 384 Kbps
Channel(s) : 6 channels
Channel positions : Front: L C R, Side: L R, LFE
Sampling rate : 48.0 KHz
Bit depth : 16 bits
Compression mode : Lossy
Stream size : 352 MiB (2%)
Title : DUB-iTunes Russia
Language : Russian
Default : Yes
Forced : No
Audio #2
ID : 3
Format : AC-3
Format/Info : Audio Coding 3
Mode extension : CM (complete main)
Format settings, Endianness : Big
Codec ID : A_AC3
Duration : 2h 8mn
Bit rate mode : Constant
Bit rate : 192 Kbps
Channel(s) : 2 channels
Channel positions : Front: L R
Sampling rate : 48.0 KHz
Bit depth : 16 bits
Compression mode : Lossy
Stream size : 176 MiB (1%)
Title : DUB-iTunes Russia
Language : Ukrainian
Default : No
Forced : No
Audio #3
ID : 4
Format : DTS
Format/Info : Digital Theater Systems
Format profile : ES
Codec ID : A_DTS
Duration : 2h 8mn
Bit rate mode : Constant
Bit rate : 1 510 Kbps
Channel(s) : 6 channels
Channel positions : Front: L C R, Side: L R, LFE
Sampling rate : 48.0 KHz
Bit depth : 24 bits
Compression mode : Lossy
Stream size : 1.35 GiB (10%)
Title : Original
Language : English
Default : No
Forced : No
Audio #4
ID : 5
Format : AC-3
Format/Info : Audio Coding 3
Mode extension : CM (complete main)
Format settings, Endianness : Big
Codec ID : A_AC3
Duration : 2h 8mn
Bit rate mode : Constant
Bit rate : 192 Kbps
Channel(s) : 2 channels
Channel positions : Front: L R
Sampling rate : 48.0 KHz
Bit depth : 16 bits
Compression mode : Lossy
Stream size : 176 MiB (1%)
Title : Commentary by George Tillman,Jr. and Oona Chaplin
Default : No
Forced : No
Text #1
ID : 6
Format : UTF-8
Codec ID : S_TEXT/UTF8
Codec ID/Info : UTF-8 Plain Text
Title : Sub-forced
Language : Russian
Default : Yes
Forced : No
Text #2
ID : 7
Format : UTF-8
Codec ID : S_TEXT/UTF8
Codec ID/Info : UTF-8 Plain Text
Title : Sub-full
Language : Russian
Default : No
Forced : No
Text #3
ID : 8
Format : UTF-8
Codec ID : S_TEXT/UTF8
Codec ID/Info : UTF-8 Plain Text
Title : Sub-full
Language : Ukrainian
Default : No
Forced : No
Text #4
ID : 9
Format : UTF-8
Codec ID : S_TEXT/UTF8
Codec ID/Info : UTF-8 Plain Text
Title : Sub-full
Language : English
Default : No
Forced : No
Text #5
ID : 10
Format : UTF-8
Codec ID : S_TEXT/UTF8
Codec ID/Info : UTF-8 Plain Text
Title : Sub-SDH
Language : English
Default : No
Forced : No
Text #6
ID : 11
Format : UTF-8
Codec ID : S_TEXT/UTF8
Codec ID/Info : UTF-8 Plain Text
Title : Sub-Commentary
Language : English
Default : No
Forced : No
Menu
00:00:00.000 : en:00:00:00.000
00:02:13.133 : en:00:02:13.133
00:07:16.311 : en:00:07:16.311
00:10:36.302 : en:00:10:36.302
00:12:44.305 : en:00:12:44.305
00:15:41.399 : en:00:15:41.399
00:20:09.542 : en:00:20:09.542
00:23:00.546 : en:00:23:00.546
00:26:04.354 : en:00:26:04.354
00:29:09.998 : en:00:29:09.998
00:33:01.688 : en:00:33:01.688
00:37:16.234 : en:00:37:16.234
00:44:09.105 : en:00:44:09.105
00:48:59.478 : en:00:48:59.478
00:53:24.034 : en:00:53:24.034
00:57:33.116 : en:00:57:33.116
01:01:40.822 : en:01:01:40.822
01:05:01.523 : en:01:05:01.523
01:09:36.506 : en:01:09:36.506
01:11:59.649 : en:01:11:59.649
01:16:15.988 : en:01:16:15.988
01:20:55.017 : en:01:20:55.017
01:25:01.888 : en:01:25:01.888
01:29:15.141 : en:01:29:15.141
01:32:49.397 : en:01:32:49.397
01:37:15.621 : en:01:37:15.621
01:39:56.616 : en:01:39:56.616
01:42:07.913 : en:01:42:07.913
01:45:21.065 : en:01:45:21.065
01:52:07.387 : en:01:52:07.387
01:57:40.845 : en:01:57:40.845
02:02:00.313 : en:02:02:00.313
Скриншоты
Скачать

Скачать торрент!

Как скачивать? · Что такое торрент? · Рейтинг и ограничения

Сайт не распространяет и не хранит электронные версии произведений, а лишь предоставляет доступ к создаваемому пользователями каталогу ссылок на торрент-файлы, которые содержат только списки хеш-сумм

[Профиль] [ЛС]
Показать сообщения:    
Ответить на тему

Текущее время: Сегодня 10:48

Часовой пояс: GMT + 4



Вы не можете начинать темы
Вы не можете отвечать на сообщения
Вы не можете редактировать свои сообщения
Вы не можете удалять свои сообщения
Вы не можете голосовать в опросах
Вы не можете прикреплять файлы к сообщениям
Вы не можете скачивать файлы