Ниндзя из Беверли Хиллз / Beverly Hills Ninja (Деннис Дуган / Dennis Dugan) [1997, США, боевик, комедия, WEB-DL 1080p] 2x MVO + AVO (Живов) + VO + Sub Rus, Eng + Original Eng

Ответить на тему
 
Автор Сообщение

user ®

Стаж: 7 лет 7 месяцев

Сообщений: 20008

Пост Пост: #1 от 09-Июл-2015 21:51

[Цитировать]

Ниндзя из Беверли Хиллз / Beverly Hills Ninja
Страна: США
Жанр: боевик, комедия
Год выпуска: 1997
Продолжительность: 01:28:31
Перевод:
1: Профессиональный (многоголосый закадровый) - Видеосервис
2: Профессиональный (многоголосый закадровый) - РТР/ ТНТ/ СТС/ Первый HD
3: Авторский (одноголосый закадровый) - Юрий Живов
4: Одноголосый закадровый (неизвестный переводчик)
Субтитры: русские, английские
Навигация по главам: нет
Режиссер: Деннис Дуган / Dennis Dugan
В ролях: Крис Фарли, Николетт Шеридан, Робин Шоу, О Сун Тек, Натаниель Паркер, Кит Кук, Крис Рок
Описание: Ниндзя — таинственный, пугающий и очень хитрый воин тьмы, который ничего не боится и не поддается контролю. Таким хотел видеть своего приемного сына наставник ниндзя, случайно подобрав младенца в лесу. И хотя из него и вырос толстый болван, он все равно должен стать воином и выполнить миссию ниндзя — вызволить из беды голливудскую красотку. Но здесь, в Беверли Хиллз, ему приходится столкнуться с настоящими убийцами, которые знают тайны кунг-фу получше его...
Доп. информация: Видеодорожка взята с Amazon (DE), за содействие в покупке спасибо Wareznik
Сэмпл: https://yadi.sk/i/oqJFYJvjhgtJg
Качество: WEB-DL 1080p
Контейнер: MKV
Видео: AVC 1980x1080, (1.78:1), 23,976 fps, 10000 Kbps
Аудио №1: Rus; AC3 5.1; 448 Kbps; 48 kHz; MVO Видеосервис
Аудио №2: Rus; AC3 2.0; 192 Kbps; 48 kHz; MVO РТР/ ТНТ/ СТС/ Первый
Аудио №3: Rus; AC3 2.0; 192 Kbps; 48 kHz; AVO Юрий Живов
Аудио №4: Rus; AC3 2.0; 192 Kbps; 48 kHz; VO (неизвестный переводчик)
Аудио №5: Eng; AC3 5.1; 384 Kbps; 48 kHz; Original
Субтитры №1: Rus; SRT
Субтитры №2: Eng; SRT
MediaInfo
General
Unique ID : 204908535621326781351298022530650273488 (0x9A27F2CE5D30FA6FA6135601E0B4F6D0)
Complete name : D:\FINAL\Beverly Hills Ninja.mkv
Format : Matroska
Format version : Version 4 / Version 2
File size : 7.04 GiB
Duration : 1h 28mn
Overall bit rate : 11.4 Mbps
Encoded date : UTC 2015-07-03 19:15:29
Writing application : mkvmerge v8.0.0 ('Til The Day That I Die') 64bit
Writing library : libebml v1.3.1 + libmatroska v1.4.2
DURATION : 01:27:28.870000000
NUMBER_OF_FRAMES : 849
NUMBER_OF_BYTES : 27990
_STATISTICS_WRITING_APP : mkvmerge v8.0.0 ('Til The Day That I Die') 64bit
_STATISTICS_WRITING_DATE_UTC : 2015-07-03 19:15:29
_STATISTICS_TAGS : BPS DURATION NUMBER_OF_FRAMES NUMBER_OF_BYTES
Video
ID : 1
Format : AVC
Format/Info : Advanced Video Codec
Format profile : High@L4.0
Format settings, CABAC : Yes
Format settings, ReFrames : 4 frames
Codec ID : V_MPEG4/ISO/AVC
Duration : 1h 28mn
Bit rate mode : Constant
Bit rate : 10 000 Kbps
Width : 1 920 pixels
Height : 1 080 pixels
Display aspect ratio : 16:9
Frame rate mode : Constant
Frame rate : 23.976 fps
Color space : YUV
Chroma subsampling : 4:2:0
Bit depth : 8 bits
Scan type : Progressive
Bits/(Pixel*Frame) : 0.201
Stream size : 6.03 GiB (86%)
Language : English
Default : Yes
Forced : No
Color primaries : BT.709
Transfer characteristics : BT.709
Matrix coefficients : BT.709
Color range : Limited
Audio #1
ID : 2
Format : AC-3
Format/Info : Audio Coding 3
Mode extension : CM (complete main)
Format settings, Endianness : Big
Codec ID : A_AC3
Duration : 1h 28mn
Bit rate mode : Constant
Bit rate : 448 Kbps
Channel(s) : 6 channels
Channel positions : Front: L C R, Side: L R, LFE
Sampling rate : 48.0 KHz
Bit depth : 16 bits
Compression mode : Lossy
Stream size : 284 MiB (4%)
Title : MVO Видеосервис
Language : Russian
Default : Yes
Forced : No
Audio #2
ID : 3
Format : AC-3
Format/Info : Audio Coding 3
Mode extension : CM (complete main)
Format settings, Endianness : Big
Codec ID : A_AC3
Duration : 1h 28mn
Bit rate mode : Constant
Bit rate : 192 Kbps
Channel(s) : 2 channels
Channel positions : Front: L R
Sampling rate : 48.0 KHz
Bit depth : 16 bits
Compression mode : Lossy
Stream size : 122 MiB (2%)
Title : MVO РТР ТНТ СТС Первый HD
Language : Russian
Default : No
Forced : No
Audio #3
ID : 4
Format : AC-3
Format/Info : Audio Coding 3
Mode extension : CM (complete main)
Format settings, Endianness : Big
Codec ID : A_AC3
Duration : 1h 28mn
Bit rate mode : Constant
Bit rate : 192 Kbps
Channel(s) : 2 channels
Channel positions : Front: L R
Sampling rate : 48.0 KHz
Bit depth : 16 bits
Compression mode : Lossy
Stream size : 122 MiB (2%)
Title : AVO Живов
Language : Russian
Default : No
Forced : No
Audio #4
ID : 5
Format : AC-3
Format/Info : Audio Coding 3
Mode extension : CM (complete main)
Format settings, Endianness : Big
Codec ID : A_AC3
Duration : 1h 28mn
Bit rate mode : Constant
Bit rate : 192 Kbps
Channel(s) : 2 channels
Channel positions : Front: L R
Sampling rate : 48.0 KHz
Bit depth : 16 bits
Compression mode : Lossy
Stream size : 122 MiB (2%)
Title : VO
Language : Russian
Default : No
Forced : No
Audio #5
ID : 6
Format : AC-3
Format/Info : Audio Coding 3
Mode extension : CM (complete main)
Format settings, Endianness : Big
Codec ID : A_AC3
Duration : 1h 28mn
Bit rate mode : Constant
Bit rate : 384 Kbps
Channel(s) : 6 channels
Channel positions : Front: L C R, Side: L R, LFE
Sampling rate : 48.0 KHz
Bit depth : 16 bits
Compression mode : Lossy
Stream size : 243 MiB (3%)
Title : Original
Language : English
Default : No
Forced : No
Text #1
ID : 7
Format : UTF-8
Codec ID : S_TEXT/UTF8
Codec ID/Info : UTF-8 Plain Text
Title : Rus
Language : Russian
Default : No
Forced : No
Text #2
ID : 8
Format : UTF-8
Codec ID : S_TEXT/UTF8
Codec ID/Info : UTF-8 Plain Text
Title : Eng
Language : English
Default : No
Forced : No
Скриншоты
Скачать

Скачать торрент!

Как скачивать? · Что такое торрент? · Рейтинг и ограничения

Сайт не распространяет и не хранит электронные версии произведений, а лишь предоставляет доступ к создаваемому пользователями каталогу ссылок на торрент-файлы, которые содержат только списки хеш-сумм

[Профиль] [ЛС]
Показать сообщения:    
Ответить на тему

Текущее время: Сегодня 19:55

Часовой пояс: GMT + 4



Вы не можете начинать темы
Вы не можете отвечать на сообщения
Вы не можете редактировать свои сообщения
Вы не можете удалять свои сообщения
Вы не можете голосовать в опросах
Вы не можете прикреплять файлы к сообщениям
Вы не можете скачивать файлы