Салон красоты / Beauty Shop (Билле Вудрафф / Bille Woodruff) [2005, США, комедия, WEB-DL 720p] MVO + VO + Sub Eng + Original Eng

Ответить на тему
 
Автор Сообщение

user ®

Стаж: 7 лет 7 месяцев

Сообщений: 20008

Пост Пост: #1 от 09-Июл-2015 21:51

[Цитировать]

Салон красоты / Beauty Shop
Страна: США
Жанр: комедия
Год выпуска: 2005
Продолжительность: 01:45:30
Перевод 1: Профессиональный (многоголосый закадровый)
Перевод 2: Одноголосый закадровый
Cубтитры: английские
Оригинальная аудиодорожка: английский
Режиссер: Билле Вудрафф / Bille Woodruff
В ролях: Куин Латифа, Алисия Сильверстоун, Энди МакДауэлл, Элфри Вудард, Мена Сувари, Делла Риз, Голден Брукс, Лаура Хэйес, Пейдж Херд, Литтл ДжейДжей...
Описание: Парикмахерша Джина Норрис переезжает из Чикаго в Атланту ради того, чтобы ее дочь смогла учиться в престижной музыкальной школе. Там Джина устраивается на работу в роскошный салон красоты, где поражает всех своим необычайным мастерством. Но когда ее эгоистичный босс начинает приписывать ее достижения себе, она уходит от него вместе с симпатичной напарницей и решает открыть собственную парикмахерскую.
Доп. информация: Многоголосый перевод с раздачи fredk, одноголосый перевод с раздачи Encanta. Синхронизация переводов - Dreven.
Сэмпл: http://multi-up.com/1057590
Тип релиза: WEB-DL 720p
Контейнер: MKV
Видео: 1280x542 (2.35:1), 23.976 fps, AVC, ~3829 Kbps, 0.230 bits/pixel
Аудио 1: Russian, 48.0 KHz, AC3, 6 ch, 384 Kbps MVO
Аудио 2: Russian, 48.0 KHz, AC3, 2 ch, 192 Kbps VO
Аудио 3: English, 48.0 KHz, AC3, 6 ch, 384 Kbps

MediaInfo
General
Unique ID : 238438687950868431976844142337479201283 (0xB3619EF377539195BACFEF6455F0D203)
Complete name : D:\Beauty Shop. WEB-DL 720p.mkv
Format : Matroska
Format version : Version 4 / Version 2
File size : 3.60 GiB
Duration : 1h 45mn
Overall bit rate : 4 886 Kbps
Movie name :
Encoded date : UTC 2015-07-08 12:34:39
Writing application : mkvmerge v8.1.0 ('Psychedelic Postcard') 64bit
Writing library : libebml v1.3.1 + libmatroska v1.4.2
DURATION : 01:45:22.176000000
NUMBER_OF_FRAMES : 197568
NUMBER_OF_BYTES : 151732224
_STATISTICS_WRITING_APP : mkvmerge v8.1.0 ('Psychedelic Postcard') 64bit
_STATISTICS_WRITING_DATE_UT : 2015-07-08 12:34:39
_STATISTICS_TAGS : BPS DURATION NUMBER_OF_FRAMES NUMBER_OF_BYTES
Video
ID : 1
Format : AVC
Format/Info : Advanced Video Codec
Format profile : Main@L3.1
Format settings, CABAC : No
Format settings, ReFrames : 2 frames
Codec ID : V_MPEG4/ISO/AVC
Duration : 1h 45mn
Bit rate : 3 829 Kbps
Width : 1 280 pixels
Height : 542 pixels
Display aspect ratio : 2.35:1
Frame rate mode : Constant
Frame rate : 23.976 fps
Color space : YUV
Chroma subsampling : 4:2:0
Bit depth : 8 bits
Scan type : Progressive
Bits/(Pixel*Frame) : 0.230
Stream size : 2.82 GiB (78%)
Language : English
Default : Yes
Forced : No
Color range : Limited
Color primaries : BT.709
Transfer characteristics : BT.709
Matrix coefficients : BT.709
Audio #1
ID : 2
Format : AC-3
Format/Info : Audio Coding 3
Mode extension : CM (complete main)
Format settings, Endianness : Big
Codec ID : A_AC3
Duration : 1h 45mn
Bit rate mode : Constant
Bit rate : 384 Kbps
Channel(s) : 6 channels
Channel positions : Front: L C R, Side: L R, LFE
Sampling rate : 48.0 KHz
Compression mode : Lossy
Stream size : 290 MiB (8%)
Language : Russian
Default : Yes
Forced : No
Audio #2
ID : 3
Format : AC-3
Format/Info : Audio Coding 3
Mode extension : CM (complete main)
Format settings, Endianness : Big
Codec ID : A_AC3
Duration : 1h 45mn
Bit rate mode : Constant
Bit rate : 192 Kbps
Channel(s) : 2 channels
Channel positions : Front: L R
Sampling rate : 48.0 KHz
Compression mode : Lossy
Stream size : 145 MiB (4%)
Language : Russian
Default : No
Forced : No
Audio #3
ID : 4
Format : AC-3
Format/Info : Audio Coding 3
Mode extension : CM (complete main)
Format settings, Endianness : Big
Codec ID : A_AC3
Duration : 1h 45mn
Bit rate mode : Constant
Bit rate : 384 Kbps
Channel(s) : 6 channels
Channel positions : Front: L C R, Side: L R, LFE
Sampling rate : 48.0 KHz
Compression mode : Lossy
Stream size : 290 MiB (8%)
Language : English
Default : No
Forced : No
Text
ID : 5
Format : UTF-8
Codec ID : S_TEXT/UTF8
Codec ID/Info : UTF-8 Plain Text
Language : English
Default : No
Forced : No
Menu
00:00:00.000 : en:Chapter 1
00:13:31.000 : en:Chapter 2
00:26:18.000 : en:Chapter 3
00:34:21.000 : en:Chapter 4
00:46:06.000 : en:Chapter 5
00:54:26.000 : en:Chapter 6
01:02:08.000 : en:Chapter 7
01:13:16.000 : en:Chapter 8
01:23:48.000 : en:Chapter 9
01:31:45.000 : en:Chapter 10
Скриншоты
Скачать

Скачать торрент!

Как скачивать? · Что такое торрент? · Рейтинг и ограничения

Сайт не распространяет и не хранит электронные версии произведений, а лишь предоставляет доступ к создаваемому пользователями каталогу ссылок на торрент-файлы, которые содержат только списки хеш-сумм

[Профиль] [ЛС]
Показать сообщения:    
Ответить на тему

Текущее время: Сегодня 03:08

Часовой пояс: GMT + 4



Вы не можете начинать темы
Вы не можете отвечать на сообщения
Вы не можете редактировать свои сообщения
Вы не можете удалять свои сообщения
Вы не можете голосовать в опросах
Вы не можете прикреплять файлы к сообщениям
Вы не можете скачивать файлы