Сурогатное материнство / Ловушка суррогатного материнства / The Surrogacy Trap (Адриан Уиллс / Adrian Wills) [2013, Канада, Драма, HDTV 1080i] MVO

Ответить на тему
 
Автор Сообщение

user ®

Стаж: 7 лет 7 месяцев

Сообщений: 20008

Пост Пост: #1 от 09-Июл-2015 21:51

[Цитировать]

Сурогатное материнство / Ловушка суррогатного материнства / The Surrogacy Trap
Страна: Канада
Жанр: Драма
Год выпуска: 2013
Продолжительность: 01:26:44
Перевод: Профессиональный (многоголосый закадровый)
Cубтитры: нет
Режиссер: Адриан Уиллс / Adrian Wills
В ролях: Миа Киршнер, Дэвид Джулиан Хёрш, Натали Браун, Эмма Кэмпбелл, Рейчел Блэнчард, Луис Деллар, Паула Костэйн, Розмари Дансмор, Милен Робик, Пол Ван Дайк
Описание: Супруги Кристи и Митч давно мечтают о ребёнке, но у них никак не получается зачать его. Отчаявшись, пара решает прибегнуть к услугам суррогатной матери. Мэллори кажется им подходящей кандидатурой, она дружелюбна и мила, и именно ей супруги решают доверить эту ответственную миссию. Но ситуация выходит из-под контроля, когда они понимают, что Мэллори совсем не та, кем казалась им раньше…
Сэмпл: http://sendfile.su/1135786
Киноопоиск: http://www.kinopoisk.ru/film/709653/

Тип релиза: HDTV 1080i
Контейнер: TS
Видео: AVC/H.264, 1920x1080 (16:9), 8152 Кбит/сек, 25.000 fps
Аудио: русский, MP2, 2ch, 48,0 КГц, 192 Кбит/сек
MediaInfo
Общее
Идентификатор : 1 (0x1)
Полное имя : C:\Documents and Settings\User\Рабочий стол\Сурогатное материнство - The Surrogacy Trap [by Romanok8691].ts
Формат : MPEG-TS
Размер файла : 5,32 Гбайт
Продолжительность : 1 ч. 26 м.
Режим общего битрейта : Переменный
Общий поток : 8780 Кбит/сек
Максимальный общий битрейт : 35,5 Мбит/сек
Видео
Идентификатор : 4113 (0x1011)
Идентификатор меню : 1 (0x1)
Формат : AVC
Формат/Информация : Advanced Video Codec
Профиль формата : Main@L4.0
Параметр CABAC формата : Да
Параметр ReFrames формата : 3 кадра
Идентификатор кодека : 27
Продолжительность : 1 ч. 26 м.
Вид битрейта : Переменный
Битрейт : 8152 Кбит/сек
Максимальный битрейт : 40,0 Мбит/сек
Ширина : 1920 пикселей
Высота : 1080 пикселей
Соотношение сторон : 16:9
Частота кадров : 25,000 кадров/сек
Стандарт вещания : Component
Цветовое пространство : YUV
Субдискретизация насыщенности : 4:2:0
Битовая глубина : 8 бит
Тип развёртки : Чересстрочная
Порядок развёртки : Верхнее поле первое
Бит/(Пиксели*Кадры) : 0.157
Размер потока : 4,94 Гбайт (93%)
colour_range : Limited
Аудио
Идентификатор : 4352 (0x1100)
Идентификатор меню : 1 (0x1)
Формат : MPEG Audio
Версия формата : Version 1
Профиль формата : Layer 2
Идентификатор кодека : 4
Продолжительность : 1 ч. 26 м.
Вид битрейта : Постоянный
Битрейт : 192 Кбит/сек
Каналы : 2 канала
Частота : 48,0 КГц
Метод сжатия : С потерями
Размер потока : 119 Мбайт (2%)
Язык : Russian
Скриншот с названием фильма Скриншоты
Скачать

Скачать торрент!

Как скачивать? · Что такое торрент? · Рейтинг и ограничения

Сайт не распространяет и не хранит электронные версии произведений, а лишь предоставляет доступ к создаваемому пользователями каталогу ссылок на торрент-файлы, которые содержат только списки хеш-сумм

[Профиль] [ЛС]
Показать сообщения:    
Ответить на тему

Текущее время: Сегодня 07:57

Часовой пояс: GMT + 4



Вы не можете начинать темы
Вы не можете отвечать на сообщения
Вы не можете редактировать свои сообщения
Вы не можете удалять свои сообщения
Вы не можете голосовать в опросах
Вы не можете прикреплять файлы к сообщениям
Вы не можете скачивать файлы