Лови полицейского / Catch the Heat (Джоэл Силберг / Joel Silberg) [1987, Аргентина, США, боевик, драма, комедия, криминал, HDTV 1080i] DVO (НТВ+) + Original Eng

Ответить на тему
 
Автор Сообщение

user ®

Стаж: 7 лет 7 месяцев

Сообщений: 20008

Пост Пост: #1 от 09-Июл-2015 21:51

[Цитировать]

Лови полицейского / Catch the Heat- Страна: Аргентина, США
Студия: Trans World Entertainment (TWE), M'Amsel Tea Entertainment, Negocios Cinematográficos S.A.
Жанр: боевик, драма, комедия, криминал
Год выпуска: 1987
Продолжительность: 01:24:34-Перевод: Профессиональный (двухголосый закадровый) НТВ+
Cубтитры: нет
Оригинальная аудиодорожка: английский-Режиссер: Джоэл Силберг / Joel Silberg
В ролях: Тиана Александра, Дэвид Дьюкс, Род Стайгер, Брайан Томпсон, Хорхе Мартинес, Джон Хэнкок, Брайан Либби, Профессор Тору Танака, Джессика Шульц, Расселл Кларк...- | Релиз: -Описание: Женщина-полицейский Чикерс Голдберг занимается расследованием поставок наркотиков в США из Аргентины, подозревая, что в них замешан магнат и любитель искусства Джейсон Ганнибал. Голдберг отправляется в Буэнос-Айрес, чтобы выяснить, каким образом Ганнибалу удается преодолевать таможенные посты. Голдберг выдает себя за певицу и вскоре входит в доверие к Ганнибалу. В конце концов, героиня выясняет, что наркотики прячут в бюсте молодых женщин, выдавая их за силиконовые. Но ситуация осложняется тем, что в банде Ганнибала есть человек, которого Голдберг ранее арестовывала, и однажды он узнает ее...-Семпл: http://sendfile.su/1135853-Тип релиза: HDTV 1080i
Контейнер: TS
Видео: 1920x1080i (16:9), 25.000 fps, AVC, ~6548 Kbps, 0.126 bits/pixel
Аудио 1: Русский, 48.0 KHz, MPEG-1 Audio layer 2, 2 ch, 192 kbps
Аудио 2: English, 48.0 KHz, MPEG-1 Audio layer 2, 2 ch, 192 kbps
MediaInfo
GeneralID : 1 (0x1)Complete name : Catch the Heat 1987 MGMHD 1080i.rus.eng.tsFormat : MPEG-TSFile size : 4.31 GiBDuration : 1h 24mnOverall bit rate mode : VariableOverall bit rate : 7 297 KbpsMaximum Overall bit rate : 35.5 Mbps
VideoID : 4113 (0x1011)Menu ID : 1 (0x1)Format : AVCFormat/Info : Advanced Video CodecFormat profile : Main@L4Format settings, CABAC : YesFormat settings, ReFrames : 4 framesCodec ID : 27Duration : 1h 24mnBit rate : 6 548 KbpsWidth : 1 920 pixelsHeight : 1 080 pixelsDisplay aspect ratio : 16:9Frame rate : 25.000 fpsStandard : ComponentColor space : YUVChroma subsampling : 4:2:0Bit depth : 8 bitsScan type : InterlacedScan order : Top Field FirstBits/(Pixel*Frame) : 0.126Stream size : 3.87 GiB (90%)Color range : LimitedColor primaries : BT.709Transfer characteristics : BT.709Matrix coefficients : BT.709
Audio #1ID : 4352 (0x1100)Menu ID : 1 (0x1)Format : MPEG AudioFormat version : Version 1Format profile : Layer 2Codec ID : 4Duration : 1h 24mnBit rate mode : ConstantBit rate : 192 KbpsChannel(s) : 2 channelsSampling rate : 48.0 KHzCompression mode : LossyStream size : 116 MiB (3%)Language : Russian
Audio #2ID : 4353 (0x1101)Menu ID : 1 (0x1)Format : MPEG AudioFormat version : Version 1Format profile : Layer 2Codec ID : 4Duration : 1h 24mnBit rate mode : ConstantBit rate : 192 KbpsChannel(s) : 2 channelsSampling rate : 48.0 KHzCompression mode : LossyStream size : 116 MiB (3%)Language : English
Скриншоты
Скачать

Скачать торрент!

Как скачивать? · Что такое торрент? · Рейтинг и ограничения

Сайт не распространяет и не хранит электронные версии произведений, а лишь предоставляет доступ к создаваемому пользователями каталогу ссылок на торрент-файлы, которые содержат только списки хеш-сумм

[Профиль] [ЛС]
Показать сообщения:    
Ответить на тему

Текущее время: Сегодня 21:41

Часовой пояс: GMT + 4



Вы не можете начинать темы
Вы не можете отвечать на сообщения
Вы не можете редактировать свои сообщения
Вы не можете удалять свои сообщения
Вы не можете голосовать в опросах
Вы не можете прикреплять файлы к сообщениям
Вы не можете скачивать файлы