Форсаж 7 / Furious 7 (Джеймс Ван / James Wan) [2015, США, Боевик, триллер, криминал, WEB-DLRip] Dub

Ответить на тему
 
Автор Сообщение

user ®

Стаж: 7 лет 7 месяцев

Сообщений: 20008

Пост Пост: #1 от 09-Июл-2015 12:33

[Цитировать]

Форсаж 7 / Furious 7
«Месть не знает границ»
- Год выхода: 2015
Выпущено: США / Original Film, Universal Pictures
Жанр: боевик, триллер, криминал
Продолжительность: 02:17:20
Перевод: Профессиональный (полное дублирование)
Субтитры: Русские (надписи + финальная песня, вшитые с исходника)-Режиссер:
Джеймс Ван / James Wan-В ролях:
Пол Уокер (Brian O'Conner), Вин Дизель (Dominic Toretto), Джейсон Стэйтем (Deckard Shaw), Мишель Родригес (Letty), Дуэйн Джонсон (Hobbs), Тайриз Гибсон (Roman), Лудакрис (Tej), Натали Эммануэль (Ramsey), Джордана Брюстер (Mia), Курт Рассел (Mr. Nobody), Тони Джа (Kiet), Джимон Хонсу (Jakande), Эльза Патаки (Elena), Лукас Блэк (Sean Boswell), Галь Гадот (Gisele), Люк Эванс (Owen Shaw), Санг Кенг (Han), Ронда Раузи (Kara)-О фильме:
Они покорили Токио и Рио, Лос-Анджелес и Лондон. Но мир больше не играет по их правилам. Зной арабских пустынь, неприлично высокие небоскребы, миллионы долларов на колесах и очень, очень знаменитый злодей. Скорость не знает границ.-Релиз групп [url=http://***/forum/viewtopic.php?t=1677970] [/url] | | IMDB | КиноПоиск | Сэмпл |-Качество: WEB-DLRip [WEB-DL | 1080p | HDCLUB]
Формат: AVI
Видео: 704x288 (2.44:1), 23.976 fps, XviD build 73 ~1326 kbps avg, 0.27 bit/pixel
Аудио: 48 kHz, AC3 Dolby Digital, 2/0 (L,R) ch, ~192.00 kbps avg - iTunes Russia
-Скриншоты MediaInfo
General
Complete name                            : D:\Forsazh_7_2015_WEB-DLRip_by_Dalemake.avi
Format                                   : AVI
Format/Info                              : Audio Video Interleave
File size                                : 1.47 GiB
Duration                                 : 2h 17mn
Overall bit rate                         : 1 528 Kbps
Writing application                      : VirtualDubMod 1.5.10.3 | www.virtualdub-fr.org || (build 2550/release)
Writing library                          : VirtualDubMod build 2550/release
Video
ID                                       : 0
Format                                   : MPEG-4 Visual
Format profile                           : Advanced Simple@L5
Format settings, BVOP                    : 1
Format settings, QPel                    : No
Format settings, GMC                     : No warppoints
Format settings, Matrix                  : Custom
Codec ID                                 : XVID
Codec ID/Hint                            : XviD
Duration                                 : 2h 17mn
Bit rate                                 : 1 327 Kbps
Width                                    : 704 pixels
Height                                   : 288 pixels
Display aspect ratio                     : 2.40:1
Frame rate                               : 23.976 fps
Color space                              : YUV
Chroma subsampling                       : 4:2:0
Bit depth                                : 8 bits
Scan type                                : Progressive
Compression mode                         : Lossy
Bits/(Pixel*Frame)                       : 0.273
Stream size                              : 1.27 GiB (87%)
Writing library                          : XviD 73
Audio
ID                                       : 1
Format                                   : AC-3
Format/Info                              : Audio Coding 3
Mode extension                           : CM (complete main)
Format settings, Endianness              : Big
Codec ID                                 : 2000
Duration                                 : 2h 17mn
Bit rate mode                            : Constant
Bit rate                                 : 192 Kbps
Channel(s)                               : 2 channels
Channel positions                        : Front: L R
Sampling rate                            : 48.0 KHz
Bit depth                                : 16 bits
Compression mode                         : Lossy
Stream size                              : 189 MiB (13%)
Alignment                                : Split accross interleaves
Interleave, duration                     : 42 ms (1.00 video frame)
Interleave, preload duration             : 500 ms
Сравнение
[url=http://***/forum/viewtopic.php?t=5039169]http://***/forum/viewtopic.php?t=5039169[/url] - перекроп
http://screenshotcomparison.com/comparison/134289
-[url=http://***/forum/viewtopic.php?t=4455699]Форсаж[/url] / [url=http://***/forum/viewtopic.php?t=4457145]Форсаж 2[/url] / [url=http://***/forum/viewtopic.php?t=4457348]Форсаж 3[/url] / [url=http://***/forum/viewtopic.php?t=4153111]Форсаж 4[/url] / [url=http://***/forum/viewtopic.php?t=4458936]Форсаж 5[/url] / [url=http://***/forum/viewtopic.php?t=4914145]Форсаж 6[/url]-
Скачать

Скачать торрент!

Как скачивать? · Что такое торрент? · Рейтинг и ограничения

Сайт не распространяет и не хранит электронные версии произведений, а лишь предоставляет доступ к создаваемому пользователями каталогу ссылок на торрент-файлы, которые содержат только списки хеш-сумм

[Профиль] [ЛС]
Показать сообщения:    
Ответить на тему

Текущее время: Сегодня 00:43

Часовой пояс: GMT + 4



Вы не можете начинать темы
Вы не можете отвечать на сообщения
Вы не можете редактировать свои сообщения
Вы не можете удалять свои сообщения
Вы не можете голосовать в опросах
Вы не можете прикреплять файлы к сообщениям
Вы не можете скачивать файлы