Двойные неприятности / Няньки 2 / Тяжелый случай / Double Trouble (Джон Парагон / John Paragon) [1992, США, криминал, комедия, HDTVRip 720p]

Ответить на тему
 
Автор Сообщение

user ®

Стаж: 7 лет 7 месяцев

Сообщений: 20008

Пост Пост: #1 от 09-Июл-2015 00:12

[Цитировать]

Двойные неприятностиDouble Trouble- Страна: США
Жанр: криминал, комедия
Год выпуска: 1992
Продолжительность: 01:23:19-Перевод: Профессиональный (многоголосый, закадровый) СТС
Перевод: Профессиональный (двухголосый, закадровый) ТНТ
Перевод: Профессиональный (двухголосый, закадровый) СВ-Кадр по заказу Совенчер
Перевод: Профессиональный (двухголосый, закадровый) НТВ+
Перевод: Авторский (одноголосый закадровый) [url=http://***/forum/viewtopic.php?t=1268579]Алексей Михалёв[/url]
Оригинальная аудиодорожка: английский
Cубтитры: нет
Режиссер: Джон Парагон / John Paragon
В ролях: Питер Пол (Peter Jade), Дэвид Пол (David Jade), Родди МакДауэлл (Philip Chamberlain), Дэвид Кэрредин (Mr. C), Стив Кэнэли (Kent), Трой Донахью (Leonard), Э.Дж. Джонсон (Danitra), Билл Муми (Bob), Джеймс Дуэн (Chief O'Brien), Коллин Бернсен (Whitney Regan), Тимоти Стэк (Albers), Боб Ивэн Коллинз (Rosehill)-Описание: Банда грабителей драгоценностей подставляет под подозрение братьев-близнецов, один из которых — полицейский, а второй — взломщик-рецидивист. Чтобы проучить обидчиков, они вынуждены стать партнерами.
Посреди зажигательных погонь и ураганной стрельбы Дэвид пытается перевоспитать братца Питера и растолковать ему, что воровать — нехорошо!-
MPAA: R - Лицам до 17 лет обязательно присутствие взрослого-Тип релиза: HDTVRip 720p (SbR)
Контейнер: MKV
Видео: AVC, 1280x718 (16:9), 8215 kbps, 25 fps
Аудио #1: Русский 48 kHz, AC3 Dolby Digital, 2/0 (L,R) ch, ~192 kbps - СТС
Аудио #2: Русский 48 kHz, AC3 Dolby Digital, 2/0 (L,R) ch, ~192 kbps - ТНТ
Аудио #3: Русский 48 kHz, FLAC, 2/0 (L,R) ch, ~764 kbps - СВ-Кадр
Аудио #4: Русский 48 kHz, AC3 Dolby Digital, 2/0 (L,R) ch, ~128 kbps - НТВ+
Аудио #5: Русский 48 kHz, AC3 Dolby Digital, 2/0 (L,R) ch, ~192 kbps - Михалёв
Аудио #6: Английский 48 kHz, AC3 Dolby Digital, 2/0 (L,R) ch, ~192 kbps
Навигация по главам: есть-СЭМПЛ - https://yadi.sk/i/v5hEayOchjM3o-Скриншоты MediaInfo
General
Unique ID : 209966682431558536444337018671712041080 (0x9DF61CB2B5179FDD9F54D4ECB881F878)
Complete name : E:\HD\Double.Trouble.1992.720p.HDTV.5xRus.Eng.mkv
Format : Matroska
Format version : Version 4 / Version 2
File size : 5.75 GiB
Duration : 1h 23mn
Overall bit rate mode : Variable
Overall bit rate : 9 878 Kbps
Movie name : Double Trouble (1992) - rutracker
Encoded date : UTC 2015-07-07 19:00:18
Writing application : mkvmerge v8.1.0 ('Psychedelic Postcard') 64bit
Writing library : libebml v1.3.1 + libmatroska v1.4.2
Attachements : cover.jpg / xlog.txt
DURATION : 01:23:19.488000000
NUMBER_OF_FRAMES : 156234
NUMBER_OF_BYTES : 119987712
_STATISTICS_WRITING_APP : mkvmerge v8.1.0 ('Psychedelic Postcard') 64bit
_STATISTICS_WRITING_DATE_UTC : 2015-07-07 19:00:18
_STATISTICS_TAGS : BPS DURATION NUMBER_OF_FRAMES NUMBER_OF_BYTES
Video
ID : 1
Format : AVC
Format/Info : Advanced Video Codec
Format profile : High@L4.1
Format settings, CABAC : Yes
Format settings, ReFrames : 9 frames
Codec ID : V_MPEG4/ISO/AVC
Duration : 1h 23mn
Width : 1 280 pixels
Height : 718 pixels
Display aspect ratio : 16:9
Frame rate mode : Constant
Frame rate : 25.000 fps
Color space : YUV
Chroma subsampling : 4:2:0
Bit depth : 8 bits
Scan type : Progressive
Writing library : x264 core 146 r2538kMod 121396c
Encoding settings : cabac=1 / ref=9 / deblock=1:-2:-2 / analyse=0x3:0x133 / me=umh / subme=11 / psy=1 / fade_compensate=0.00 / psy_rd=1.00:0.00 / mixed_ref=1 / me_range=32 / chroma_me=1 / trellis=2 / 8x8dct=1 / cqm=0 / deadzone=21,11 / fast_pskip=1 / chroma_qp_offset=-2 / threads=12 / lookahead_threads=2 / sliced_threads=0 / nr=0 / decimate=1 / interlaced=0 / bluray_compat=0 / constrained_intra=0 / fgo=0 / bframes=8 / b_pyramid=2 / b_adapt=2 / b_bias=0 / direct=1 / weightb=1 / open_gop=0 / weightp=2 / keyint=250 / keyint_min=25 / scenecut=40 / intra_refresh=0 / rc_lookahead=60 / rc=crf / mbtree=0 / crf=17.0000 / qcomp=0.70 / qpmin=0 / qpmax=69 / qpstep=4 / vbv_maxrate=62500 / vbv_bufsize=78125 / crf_max=0.0 / nal_hrd=none / filler=0 / ip_ratio=1.40 / pb_ratio=1.30 / aq=1:0.80
Language : English
Default : Yes
Forced : No
Color range : Limited
Color primaries : BT.709
Transfer characteristics : BT.709
Matrix coefficients : BT.709
Audio #1
ID : 2
Format : AC-3
Format/Info : Audio Coding 3
Mode extension : CM (complete main)
Format settings, Endianness : Big
Codec ID : A_AC3
Duration : 1h 23mn
Bit rate mode : Constant
Bit rate : 192 Kbps
Channel(s) : 2 channels
Channel positions : Front: L R
Sampling rate : 48.0 KHz
Compression mode : Lossy
Stream size : 114 MiB (2%)
Title : СТС
Language : Russian
Default : Yes
Forced : No
Audio #2
ID : 3
Format : AC-3
Format/Info : Audio Coding 3
Mode extension : CM (complete main)
Format settings, Endianness : Big
Codec ID : A_AC3
Duration : 1h 23mn
Bit rate mode : Constant
Bit rate : 192 Kbps
Channel(s) : 2 channels
Channel positions : Front: L R
Sampling rate : 48.0 KHz
Compression mode : Lossy
Stream size : 114 MiB (2%)
Title : ТНТ
Language : Russian
Default : No
Forced : No
Audio #3
ID : 4
Format : FLAC
Format/Info : Free Lossless Audio Codec
Codec ID : A_FLAC
Duration : 1h 23mn
Bit rate mode : Variable
Channel(s) : 2 channels
Sampling rate : 48.0 KHz
Bit depth : 16 bits
Title : СВ-Кадр
Writing library : libFLAC 1.2.1 (UTC 2007-09-17)
Language : Russian
Default : No
Forced : No
Audio #4
ID : 5
Format : AC-3
Format/Info : Audio Coding 3
Mode extension : CM (complete main)
Format settings, Endianness : Big
Codec ID : A_AC3
Duration : 1h 23mn
Bit rate mode : Constant
Bit rate : 128 Kbps
Channel(s) : 2 channels
Channel positions : Front: L R
Sampling rate : 48.0 KHz
Compression mode : Lossy
Stream size : 76.3 MiB (1%)
Title : НТВ-плюс
Language : Russian
Default : No
Forced : No
Audio #5
ID : 6
Format : AC-3
Format/Info : Audio Coding 3
Mode extension : CM (complete main)
Format settings, Endianness : Big
Codec ID : A_AC3
Duration : 1h 23mn
Bit rate mode : Constant
Bit rate : 192 Kbps
Channel(s) : 2 channels
Channel positions : Front: L R
Sampling rate : 48.0 KHz
Compression mode : Lossy
Stream size : 114 MiB (2%)
Title : А. Михалёв
Language : Russian
Default : No
Forced : No
Audio #6
ID : 7
Format : AC-3
Format/Info : Audio Coding 3
Mode extension : CM (complete main)
Format settings, Endianness : Big
Codec ID : A_AC3
Duration : 1h 23mn
Bit rate mode : Constant
Bit rate : 192 Kbps
Channel(s) : 2 channels
Channel positions : Front: L R
Sampling rate : 48.0 KHz
Compression mode : Lossy
Stream size : 114 MiB (2%)
Language : English
Default : No
Forced : No
Menu
00:00:00.000 : en:Chapter 1
00:05:35.040 : en:Chapter 2
00:10:16.520 : en:Chapter 3
00:14:19.560 : en:Chapter 4
00:16:41.400 : en:Chapter 5
00:19:27.520 : en:Chapter 6
00:22:20.800 : en:Chapter 7
00:29:23.440 : en:Chapter 8
00:45:19.160 : en:Chapter 9
00:58:09.280 : en:Chapter 10
01:14:36.880 : en:Chapter 11
01:20:11.080 : en:Chapter 12
x264 log
x264 [info]: frame I:1178 Avg QP:16.06 size:122047
x264 [info]: frame P:28670 Avg QP:17.26 size: 65235
x264 [info]: frame B:95136 Avg QP:19.45 size: 32792
x264 [info]: kb/s:8215.08
Дополнительно
За исходник спасибо Sergeant Pepper
За рип спасибо Skazhutin.
За исходники дорог спасибо: СТС - Liu Jian, ТНТ - Alexstar777 и Liu Jian, СВ-Кадр - Fikaloid, Михалёв - alexeiden
Скачать

Скачать торрент!

Как скачивать? · Что такое торрент? · Рейтинг и ограничения

Сайт не распространяет и не хранит электронные версии произведений, а лишь предоставляет доступ к создаваемому пользователями каталогу ссылок на торрент-файлы, которые содержат только списки хеш-сумм

[Профиль] [ЛС]
Показать сообщения:    
Ответить на тему

Текущее время: Сегодня 14:13

Часовой пояс: GMT + 4



Вы не можете начинать темы
Вы не можете отвечать на сообщения
Вы не можете редактировать свои сообщения
Вы не можете удалять свои сообщения
Вы не можете голосовать в опросах
Вы не можете прикреплять файлы к сообщениям
Вы не можете скачивать файлы