Немая жертва / Бессловесная жертва / Silent Victim (Менахем Голан / Menahem Golan) [1993, США, драма, триллер, HDTV 1080i] DVO (НТВ+) + Original Eng

Ответить на тему
 
Автор Сообщение

user ®

Стаж: 7 лет 7 месяцев

Сообщений: 20008

Пост Пост: #1 от 09-Июл-2015 00:12

[Цитировать]

Немая жертва / Silent Victim- Страна: США
Студия: 21st Century Film Corporation, Wells Company
Жанр: драма, триллер
Год выпуска: 1993
Продолжительность: 01:51:19-Перевод: Профессиональный (двухголосый закадровый) НТВ+
Cубтитры: нет
Оригинальная аудиодорожка: английский-Режиссер: Менахем Голан / Menahem Golan
В ролях: Мишель Грин, Кайл Секор, Алекс Хайд-Уайт, Илай Пуже, Дори Бреннер...- | Релиз: -Описание: Бонни Джексон и Джед Джексон живут в небольшом городке Ньюнан в штате Джорджия. Джед нередко избивает жену. После очередной ссоры Бонни принимает смертельную дозу таблеток. Её саму удалось спасти, однако выясняется, что Бонни была беременна и ребёнок погиб. Узнав об этом, Джед подаёт на жену в суд за предумышленное убийство.-Семпл: http://sendfile.su/1135537-Тип релиза: HDTV 1080i
Контейнер: TS
Видео: 1920x1080i (16:9), 25.000 fps, AVC, ~6369 Kbps, 0.123 bits/pixel
Аудио 1: Русский, 48.0 KHz, MPEG-1 Audio layer 2, 2 ch, 192 kbps
Аудио 2: English, 48.0 KHz, MPEG-1 Audio layer 2, 2 ch, 192 kbps
MediaInfo
GeneralID : 1 (0x1)Complete name : Silent Victim 1993 MGMHD 1080i.rus.eng.tsFormat : MPEG-TSFile size : 5.53 GiBDuration : 1h 51mnOverall bit rate mode : VariableOverall bit rate : 7 109 KbpsMaximum Overall bit rate : 35.5 Mbps
VideoID : 4113 (0x1011)Menu ID : 1 (0x1)Format : AVCFormat/Info : Advanced Video CodecFormat profile : Main@L4Format settings, CABAC : YesFormat settings, ReFrames : 4 framesCodec ID : 27Duration : 1h 51mnBit rate : 6 369 KbpsWidth : 1 920 pixelsHeight : 1 080 pixelsDisplay aspect ratio : 16:9Frame rate : 25.000 fpsStandard : ComponentColor space : YUVChroma subsampling : 4:2:0Bit depth : 8 bitsScan type : InterlacedScan order : Top Field FirstBits/(Pixel*Frame) : 0.123Stream size : 4.95 GiB (90%)Color range : LimitedColor primaries : BT.709Transfer characteristics : BT.709Matrix coefficients : BT.709
Audio #1ID : 4352 (0x1100)Menu ID : 1 (0x1)Format : MPEG AudioFormat version : Version 1Format profile : Layer 2Codec ID : 4Duration : 1h 51mnBit rate mode : ConstantBit rate : 192 KbpsChannel(s) : 2 channelsSampling rate : 48.0 KHzCompression mode : LossyStream size : 153 MiB (3%)Language : Russian
Audio #2ID : 4353 (0x1101)Menu ID : 1 (0x1)Format : MPEG AudioFormat version : Version 1Format profile : Layer 2Codec ID : 4Duration : 1h 51mnBit rate mode : ConstantBit rate : 192 KbpsChannel(s) : 2 channelsSampling rate : 48.0 KHzCompression mode : LossyStream size : 153 MiB (3%)Language : English
Скриншоты
Скачать

Скачать торрент!

Как скачивать? · Что такое торрент? · Рейтинг и ограничения

Сайт не распространяет и не хранит электронные версии произведений, а лишь предоставляет доступ к создаваемому пользователями каталогу ссылок на торрент-файлы, которые содержат только списки хеш-сумм

[Профиль] [ЛС]
Показать сообщения:    
Ответить на тему

Текущее время: Сегодня 20:15

Часовой пояс: GMT + 4



Вы не можете начинать темы
Вы не можете отвечать на сообщения
Вы не можете редактировать свои сообщения
Вы не можете удалять свои сообщения
Вы не можете голосовать в опросах
Вы не можете прикреплять файлы к сообщениям
Вы не можете скачивать файлы