Железный воин / Iron Warrior (Альфонсо Брешия / Alfonso Brescia) [1987, Италия, фэнтези, боевик, драма, HDTV 1080i] DVO (НТВ+) + Original Eng

Ответить на тему
 
Автор Сообщение

user ®

Стаж: 7 лет 7 месяцев

Сообщений: 20008

Пост Пост: #1 от 09-Июл-2015 00:12

[Цитировать]

Железный воин / Iron Warrior- Страна: Италия
Студия: Brouwersgracht Investments, Continental Motion Pictures
Жанр: фэнтези, боевик, драма
Год выпуска: 1987
Продолжительность: 01:20:15-Перевод: Профессиональный (двухголосый закадровый) НТВ+ (Ольга Плетнёва, Игорь Тарадайкин)
Cубтитры: нет
Оригинальная аудиодорожка: английский-Режиссер: Альфонсо Брешия / Alfonso Brescia
В ролях: Майлз О’Киффи, Савина Гершак, Элизабет Каза, Ирис Пейнадо, Тим Лэйн...- | Релиз: -Описание: Атор вновь возвращается и на этот раз он сразится с Федрой, злой колдуньей. Но у нее есть непобедимый железный воин. Атору не удается одержать над ним верх, до тех пор, пока он не раскрывает секрет неуязвимости воина.-Семпл: http://sendfile.su/1135561-Тип релиза: HDTV 1080i
Контейнер: TS
Видео: 1920x1080i (16:9), 25.000 fps, AVC, ~5927 Kbps, 0.114 bits/pixel
Аудио 1: Русский, 48.0 KHz, MPEG-1 Audio layer 2, 2 ch, 192 kbps
Аудио 2: English, 48.0 KHz, MPEG-1 Audio layer 2, 2 ch, 192 kbps
MediaInfo
GeneralID : 1 (0x1)Complete name : Iron Warrior 1987 MGMHD 1080i.rus.eng.tsFormat : MPEG-TSFile size : 3.72 GiBDuration : 1h 20mnOverall bit rate mode : VariableOverall bit rate : 6 643 KbpsMaximum Overall bit rate : 35.5 Mbps
VideoID : 4113 (0x1011)Menu ID : 1 (0x1)Format : AVCFormat/Info : Advanced Video CodecFormat profile : Main@L4Format settings, CABAC : YesFormat settings, ReFrames : 4 framesFormat settings, GOP : M=4, N=28Codec ID : 27Duration : 1h 20mnBit rate : 5 927 KbpsWidth : 1 920 pixelsHeight : 1 080 pixelsDisplay aspect ratio : 16:9Frame rate : 25.000 fpsStandard : ComponentColor space : YUVChroma subsampling : 4:2:0Bit depth : 8 bitsScan type : InterlacedScan order : Top Field FirstBits/(Pixel*Frame) : 0.114Stream size : 3.32 GiB (89%)Color range : LimitedColor primaries : BT.709Transfer characteristics : BT.709Matrix coefficients : BT.709
Audio #1ID : 4352 (0x1100)Menu ID : 1 (0x1)Format : MPEG AudioFormat version : Version 1Format profile : Layer 2Codec ID : 4Duration : 1h 20mnBit rate mode : ConstantBit rate : 192 KbpsChannel(s) : 2 channelsSampling rate : 48.0 KHzCompression mode : LossyStream size : 110 MiB (3%)Language : Russian
Audio #2ID : 4353 (0x1101)Menu ID : 1 (0x1)Format : MPEG AudioFormat version : Version 1Format profile : Layer 2Codec ID : 4Duration : 1h 20mnBit rate mode : ConstantBit rate : 192 KbpsChannel(s) : 2 channelsSampling rate : 48.0 KHzCompression mode : LossyStream size : 110 MiB (3%)Language : English
Скриншоты
Скачать

Скачать торрент!

Как скачивать? · Что такое торрент? · Рейтинг и ограничения

Сайт не распространяет и не хранит электронные версии произведений, а лишь предоставляет доступ к создаваемому пользователями каталогу ссылок на торрент-файлы, которые содержат только списки хеш-сумм

[Профиль] [ЛС]
Показать сообщения:    
Ответить на тему

Текущее время: Сегодня 21:39

Часовой пояс: GMT + 4



Вы не можете начинать темы
Вы не можете отвечать на сообщения
Вы не можете редактировать свои сообщения
Вы не можете удалять свои сообщения
Вы не можете голосовать в опросах
Вы не можете прикреплять файлы к сообщениям
Вы не можете скачивать файлы