Линкольн для адвоката / The Lincoln Lawyer (Брэд Фурман / Brad Furman) [2011, США, криминал, драма, триллер, BDRip 1080p] Dub + VO (Матвеев) + AVO (Гаврилов) + Original Eng + Sub, Rus, Eng

Ответить на тему
 
Автор Сообщение

user ®

Стаж: 7 лет 7 месяцев

Сообщений: 20008

Пост Пост: #1 от 08-Июл-2015 21:06

[Цитировать]

Линкольн для адвоката / The Lincoln Lawyer
Страна: США
Жанр: криминал, драма, триллер
Год выпуска: 2011
Продолжительность: 01:58:28
Перевод 1: Профессиональный (дублированный)
Перевод 2: Одноголосый (закадровый) Матвеев Алексей
Перевод 3: Авторский (одноголосый закадровый) Гаврилов Андрей
Cубтитры: русские (Матвеев), русские, английские
Оригинальная аудиодорожка: английский
Режиссер: Брэд Фурман / Brad Furman
В ролях: Мэттью МакКонахи, Мариса Томей, Райан Филипп, Уильям Х. Мэйси, Джош Лукас, Джон Легуизамо, Майкл Пенья, Боб Гантон, Фрэнсис Фишер, Брайан Крэнстон
Описание: Адвокат Микки Хэллер, который практически живет в своем «Линкольне» и все бумаги держит на заднем сидении автомобиля, большую часть карьеры занимался тем, что защищал мелких сошек, но вот ему подвернулось дело всей жизни: его нанимает известный плэйбой из Беверли-Хиллз, которого обвиняют в убийстве. Неожиданный шанс оборачивается для Хэллера игрой на выживание...
Сэмпл: Скачать
Тип релиза: BDRip 1080p (SbR)
Контейнер: MKV
Видео: 1920x818, 23.976 fps, x264 ~12594 kbps
Аудио 1: Русский DTS 5.1, 48 kHz, 1509 kbps |Дубляж|
Аудио 2: Русский DTS 5.1, 48 kHz, 1509 kbps |Матвеев|
Аудио 3: Русский DTS 5.1, 48 kHz, 1509 kbps |Гаврилов|
Аудио 5: Английский DTS 5.1, 48 kHz, 1509 kbps
Формат субтитров: softsub (SRT)
MediaInfo
General
Unique ID : 172641588090519096451846592845709715936 (0x81E18F775BAB12DAA1579068861629E0)
Complete name : G:\The.Lincoln.Lawyer.2011.1080p.BluRay.3xRus.Eng-SbR.mkv
Format : Matroska
Format version : Version 4 / Version 2
File size : 15.4 GiB
Duration : 1h 58mn
Overall bit rate : 18.6 Mbps
Movie name : The Lincoln Lawyer (2011) - Encode by SbR
Encoded date : UTC 2015-07-07 07:00:40
Writing application : mkvmerge v8.1.0 ('Psychedelic Postcard') 64bit
Writing library : libebml v1.3.1 + libmatroska v1.4.2
Attachements : cover.jpg / xlog.txt
Video
ID : 1
Format : AVC
Format/Info : Advanced Video Codec
Format profile : High@L4.1
Format settings, CABAC : Yes
Format settings, ReFrames : 5 frames
Codec ID : V_MPEG4/ISO/AVC
Duration : 1h 58mn
Bit rate : 12.2 Mbps
Width : 1 920 pixels
Height : 818 pixels
Display aspect ratio : 2.35:1
Frame rate mode : Constant
Frame rate : 23.976 fps
Color space : YUV
Chroma subsampling : 4:2:0
Bit depth : 8 bits
Scan type : Progressive
Bits/(Pixel*Frame) : 0.325
Stream size : 10.1 GiB (66%)
Writing library : x264 core 146 r2538kMod 121396c
Encoding settings : cabac=1 / ref=5 / deblock=1:-2:-2 / analyse=0x3:0x133 / me=umh / subme=11 / psy=1 / fade_compensate=0.00 / psy_rd=1.00:0.00 / mixed_ref=1 / me_range=32 / chroma_me=1 / trellis=2 / 8x8dct=1 / cqm=0 / deadzone=21,11 / fast_pskip=1 / chroma_qp_offset=-2 / threads=12 / lookahead_threads=2 / sliced_threads=0 / nr=0 / decimate=1 / interlaced=0 / bluray_compat=0 / constrained_intra=0 / fgo=0 / bframes=8 / b_pyramid=2 / b_adapt=2 / b_bias=0 / direct=1 / weightb=1 / open_gop=0 / weightp=2 / keyint=250 / keyint_min=23 / scenecut=40 / intra_refresh=0 / rc_lookahead=60 / rc=crf / mbtree=0 / crf=16.0000 / qcomp=0.60 / qpmin=0 / qpmax=69 / qpstep=4 / vbv_maxrate=62500 / vbv_bufsize=78125 / crf_max=0.0 / nal_hrd=none / filler=0 / ip_ratio=1.40 / pb_ratio=1.30 / aq=1:1.00
Language : English
Default : Yes
Forced : No
Color range : Limited
Color primaries : BT.709
Transfer characteristics : BT.709
Matrix coefficients : BT.709
Audio #1
ID : 2
Format : DTS
Format/Info : Digital Theater Systems
Mode : 16
Format settings, Endianness : Big
Codec ID : A_DTS
Duration : 1h 58mn
Bit rate mode : Constant
Bit rate : 1 509 Kbps
Channel(s) : 6 channels
Channel positions : Front: L C R, Side: L R, LFE
Sampling rate : 48.0 KHz
Bit depth : 16 bits
Compression mode : Lossy
Stream size : 1.25 GiB (8%)
Title : Дубляж
Language : Russian
Default : Yes
Forced : No
Audio #2
ID : 3
Format : DTS
Format/Info : Digital Theater Systems
Mode : 16
Format settings, Endianness : Big
Codec ID : A_DTS
Duration : 1h 58mn
Bit rate mode : Constant
Bit rate : 1 509 Kbps
Channel(s) : 6 channels
Channel positions : Front: L C R, Side: L R, LFE
Sampling rate : 48.0 KHz
Bit depth : 24 bits
Compression mode : Lossy
Stream size : 1.25 GiB (8%)
Title : Матвеев
Language : Russian
Default : No
Forced : No
Audio #3
ID : 4
Format : DTS
Format/Info : Digital Theater Systems
Mode : 16
Format settings, Endianness : Big
Codec ID : A_DTS
Duration : 1h 58mn
Bit rate mode : Constant
Bit rate : 1 509 Kbps
Channel(s) : 6 channels
Channel positions : Front: L C R, Side: L R, LFE
Sampling rate : 48.0 KHz
Bit depth : 24 bits
Compression mode : Lossy
Stream size : 1.25 GiB (8%)
Title : Гаврилов
Language : Russian
Default : No
Forced : No
Audio #4
ID : 5
Format : DTS
Format/Info : Digital Theater Systems
Mode : 16
Format settings, Endianness : Big
Codec ID : A_DTS
Duration : 1h 58mn
Bit rate mode : Constant
Bit rate : 1 509 Kbps
Channel(s) : 6 channels
Channel positions : Front: L C R, Side: L R, LFE
Sampling rate : 48.0 KHz
Bit depth : 24 bits
Compression mode : Lossy
Stream size : 1.25 GiB (8%)
Language : English
Default : No
Forced : No
Text #1
ID : 6
Format : UTF-8
Codec ID : S_TEXT/UTF8
Codec ID/Info : UTF-8 Plain Text
Title : Матвеев
Language : Russian
Default : No
Forced : No
Text #2
ID : 7
Format : UTF-8
Codec ID : S_TEXT/UTF8
Codec ID/Info : UTF-8 Plain Text
Language : Russian
Default : No
Forced : No
Text #3
ID : 8
Format : UTF-8
Codec ID : S_TEXT/UTF8
Codec ID/Info : UTF-8 Plain Text
Language : English
Default : No
Forced : No
Menu
00:00:00.000 : en:Something Big
00:05:06.223 : en:Get Paid
00:16:49.258 : en:Something New
00:20:05.413 : en:What Happened
00:30:21.194 : en:Security Camera
00:38:22.550 : en:Catching Up
00:48:24.360 : en:Make it Right
00:55:06.428 : en:Dangerous Place
00:59:09.463 : en:Predator
01:03:15.834 : en:Break in the Case
01:09:03.139 : en:Defense Theory
01:15:28.065 : en:Witness Testimony
01:23:20.662 : en:Taking the Stand
01:29:43.253 : en:Snitch
01:37:33.347 : en:Information Leak
01:49:59.551 : en:Repeat Customers
xlog
raw [info]: 1920x818p 1:1 @ 24000/1001 fps (cfr)
x264 [info]: using SAR=1/1
x264 [info]: using cpu capabilities: MMX2 SSE2Fast SSSE3 SSE4.2 AVX
x264 [info]: profile High, level 4.1
x264 [info]: frame I:1097 Avg QP:12.52 size:211638
x264 [info]: frame P:38426 Avg QP:14.08 size:109563
x264 [info]: frame B:130920 Avg QP:16.00 size: 51551
x264 [info]: consecutive B-frames: 2.5% 3.1% 10.6% 14.2% 19.3% 44.0% 4.6% 0.7% 0.9%
x264 [info]: mb I I16..4: 9.8% 76.8% 13.5%
x264 [info]: mb P I16..4: 1.9% 31.0% 2.6% P16..4: 19.5% 25.7% 10.1% 2.3% 0.1% skip: 6.8%
x264 [info]: mb B I16..4: 0.4% 5.5% 0.4% B16..8: 34.1% 25.5% 5.5% direct: 8.1% skip:20.5% L0:43.4% L1:42.1% BI:14.5%
x264 [info]: 8x8 transform intra:86.9% inter:47.5%
x264 [info]: coded y,uvDC,uvAC intra: 90.9% 80.6% 65.0% inter: 44.3% 24.5% 4.0%
x264 [info]: i16 v,h,dc,p: 36% 13% 7% 44%
x264 [info]: i8 v,h,dc,ddl,ddr,vr,hd,vl,hu: 10% 8% 16% 9% 11% 11% 11% 11% 12%
x264 [info]: i4 v,h,dc,ddl,ddr,vr,hd,vl,hu: 28% 9% 15% 6% 9% 9% 8% 7% 8%
x264 [info]: i8c dc,h,v,p: 44% 27% 18% 11%
x264 [info]: Weighted P-Frames: Y:1.7% UV:1.0%
x264 [info]: ref P L0: 50.4% 10.4% 21.9% 8.8% 7.6% 0.9% 0.0%
x264 [info]: ref B L0: 76.7% 16.8% 5.2% 1.3%
x264 [info]: ref B L1: 91.9% 8.1%
x264 [info]: kb/s:12594.11
encoded 170443 frames, 3.34 fps, 12594.11 kb/s, duration 14:09:31.13
Скриншоты
Encode vs Source vs [url=http://***/forum/viewtopic.php?t=3613481]CHD[/url]





Дополнительно
Спасибо hdtracker за дорожку с переводом Гаврилова.
Скачать

Скачать торрент!

Как скачивать? · Что такое торрент? · Рейтинг и ограничения

Сайт не распространяет и не хранит электронные версии произведений, а лишь предоставляет доступ к создаваемому пользователями каталогу ссылок на торрент-файлы, которые содержат только списки хеш-сумм

[Профиль] [ЛС]
Показать сообщения:    
Ответить на тему

Текущее время: Сегодня 05:11

Часовой пояс: GMT + 4



Вы не можете начинать темы
Вы не можете отвечать на сообщения
Вы не можете редактировать свои сообщения
Вы не можете удалять свои сообщения
Вы не можете голосовать в опросах
Вы не можете прикреплять файлы к сообщениям
Вы не можете скачивать файлы