Изо всех сил / Over the Top (Менахем Голан / Menahem Golan) [1987, США, боевик, драма, семейный, спорт, BDRip 720p] 5x MVO + DVO + 2x AVO + VO + Sub (Rus, Ukr, Eng) + Original Eng

Ответить на тему
 
Автор Сообщение

user ®

Стаж: 7 лет 7 месяцев

Сообщений: 20008

Пост Пост: #1 от 08-Июл-2015 18:00

[Цитировать]

Изо всех сил / Over the Top
«Rocky, Rambo, Cobra And Now _Hawk_, In The Biggest Fight Of His Life»
- Страна: США
Студия: Warner Bros. Pictures, Golan-Globus Productions Ltd.
Жанр: боевик, драма, семейный, спорт
Год выпуска: 1987
Продолжительность: 01:33:35
Перевод: Профессиональный (многоголосый закадровый) 20th Century Fox
+ Профессиональный (многоголосый закадровый) ORT
+ Профессиональный (многоголосый закадровый) NTV
+ Профессиональный (многоголосый закадровый) Paramount Channel
+ Профессиональный (многоголосый закадровый) STS
+ Профессиональный (двухголосый закадровый) Fortuna Film
+ Авторский (одноголосый закадровый) Gavrilov
+ Авторский (одноголосый закадровый) Nemahov
+ Студийный (одноголосый закадровый) LNT
Cубтитры: RUS (Full, DENnv), UKR (Full), ENG (SDH)
Оригинальная аудиодорожка: English
Навигация по главам: присутствует - 25 глав | подписаны-Режиссер:
Менахем Голан / Menahem Golan-В ролях:
Сильвестр Сталлоне (Lincoln Hawk), Роберт Лоджа (Jason Cutler), Сьюзэн Блэйкли (Christina Hawk), Рик Цумвальт (Bob «Bull» Hurley), Дэвид Менденхолл (Michael Cutler), Крис МакКарти (Tim Salanger), Терри Фанк (Ruker), Боб Битти (Announcer), Аллан Граф (Collins), Мэджик Шварц (Smasher).-Описание:
Водитель грузовика Линкольн Хоук, по прозвищу Ястреб, едет в Лас-Вегас на чемпионат мира по армреслингу. У него много забот: надо встретиться и поговорить с бывшей женой, умирающей от странной болезни сердца; проведать, сломав ворота и разобравшись с телохранителями, любимого тестя и любой ценой заполучить сына, брошенного 10 лет назад. Сын, в начале принявший отца в штыки, станет опорой Ястреба и поможет ему выиграть чемпионат.- -Тип релиза: [url=http://***/forum/viewtopic.php?t=2910425]BD[/url]-Rip 720p | thx: ☞ arestarh1986
Контейнер: MKV-Видео: 1 280x538 at 23.976 fps, x264 @ L4.1, crf, ~8454 kbps avg
Аудио#1: 48.0 kHz, DTS, 3/2 (L,C,R,l,r) + LFE ch, ~768 kbps | 20th Century Fox
Аудио#2: 48.0 kHz, AC3 Dolby Digital, 2/0 (L,R) ch, ~192.00 kbps | ORT
Аудио#3: 48.0 kHz, AC3 Dolby Digital, 2/0 (L,R) ch, ~192.00 kbps | NTV
Аудио#4: 48.0 kHz, AC3 Dolby Digital, 2/0 (L,R) ch, ~192.00 kbps | Paramount Channel
Аудио#5: 48.0 kHz, AC3 Dolby Digital, 2/0 (L,R) ch, ~192.00 kbps | STS
Аудио#6: 48.0 kHz, AC3 Dolby Digital, 2/0 (L,R) ch, ~192.00 kbps | Fortuna Film
Аудио#7: 48.0 kHz, AC3 Dolby Digital, 2/0 (L,R) ch, ~192.00 kbps | Gavrilov
Аудио#8: 48.0 kHz, AC3 Dolby Digital, 2/0 (L,R) ch, ~192.00 kbps | Nemahov
Аудио#9: 48.0 kHz, AC3 Dolby Digital, 2/0 (L,R) ch, ~192.00 kbps | LNT
Аудио#10: 48.0 kHz, AC3 Dolby Digital, 3/2 (L,C,R,l,r) + LFE ch, ~640 kbps | Original
Формат субтитров: softsub (SRT*)
-MI
Общее
Уникальный идентификатор : 254290058136163096531183608687451290152 (0xBF4E7BD7333068BBB947E5E7D4A1BA28)
Полное имя : D:\Фильмы\Over the Top.1987.720р.BluRay.9xRus.Eng.mkv
Формат : Matroska
Версия формата : Version 4 / Version 2
Размер файла : 7,64 Гбайт
Продолжительность : 1 ч. 34 м.
Общий поток : 11,6 Мбит/сек
Дата кодирования : UTC 2015-07-05 10:43:50
Программа кодирования : mkvmerge v6.1.0 ('Old Devil') built on Mar 4 2013 09:10:42
Библиотека кодирования : libebml v1.3.0 + libmatroska v1.4.0
Attachment : Yes
Видео
Идентификатор : 1
Формат : AVC
Формат/Информация : Advanced Video Codec
Профиль формата : High@L4.1
Параметр CABAC формата : Да
Параметр ReFrames формата : 11 кадров
Идентификатор кодека : V_MPEG4/ISO/AVC
Продолжительность : 1 ч. 34 м.
Битрейт : 8454 Кбит/сек
Ширина : 1280 пикселей
Высота : 538 пикселей
Соотношение сторон : 2,40:1
Режим частоты кадров : Постоянный
Частота кадров : 23,976 кадра/сек
Цветовое пространство : YUV
Субдискретизация насыщенности : 4:2:0
Битовая глубина : 8 бит
Тип развёртки : Прогрессивная
Бит/(Пиксели*Кадры) : 0.512
Размер потока : 5,56 Гбайт (73%)
Заголовок : Изо всех сил / Over the Top 1987 720р by [B.A.T.U.S.A.Y.]
Библиотека кодирования : x264 core 146 r2538kMod 121396c
Настройки программы : cabac=1 / ref=11 / deblock=1:-3:-3 / analyse=0x3:0x113 / me=umh / subme=11 / psy=1 / fade_compensate=0.00 / psy_rd=0.98:0.10 / mixed_ref=1 / me_range=48 / chroma_me=1 / trellis=2 / 8x8dct=1 / cqm=0 / deadzone=21,11 / fast_pskip=0 / chroma_qp_offset=-3 / threads=6 / lookahead_threads=1 / sliced_threads=0 / nr=0 / decimate=1 / interlaced=0 / bluray_compat=0 / constrained_intra=0 / fgo=0 / bframes=15 / b_pyramid=2 / b_adapt=2 / b_bias=0 / direct=3 / weightb=1 / open_gop=0 / weightp=2 / keyint=230 / keyint_min=23 / scenecut=40 / intra_refresh=0 / rc_lookahead=60 / rc=crf / mbtree=0 / crf=16.4950 / qcomp=0.65 / qpmin=0 / qpmax=69 / qpstep=4 / vbv_maxrate=50000 / vbv_bufsize=62500 / crf_max=0.0 / nal_hrd=none / filler=0 / ip_ratio=1.40 / pb_ratio=1.30 / aq=2:0.75
Язык : English
Default : Да
Forced : Нет
Аудио #1
Идентификатор : 2
Формат : DTS
Формат/Информация : Digital Theater Systems
Режим : 16
Параметр Endianness формата : Big
Идентификатор кодека : A_DTS
Продолжительность : 1 ч. 34 м.
Вид битрейта : Постоянный
Битрейт : 755 Кбит/сек
Каналы : 6 каналов
Расположение каналов : Front: L C R, Side: L R, LFE
Частота : 48,0 КГц
Битовая глубина : 24 бит
Метод сжатия : С потерями
Размер потока : 508 Мбайт (6%)
Заголовок : DTS 5.1 @ 768 kbps - MVO, 20th Century Fox
Язык : Russian
Default : Нет
Forced : Нет
Аудио #2
Идентификатор : 3
Формат : AC-3
Формат/Информация : Audio Coding 3
Расширение режима : CM (complete main)
Параметр Endianness формата : Big
Идентификатор кодека : A_AC3
Продолжительность : 1 ч. 34 м.
Вид битрейта : Постоянный
Битрейт : 192 Кбит/сек
Каналы : 2 канала
Расположение каналов : Front: L R
Частота : 48,0 КГц
Битовая глубина : 16 бит
Метод сжатия : С потерями
Размер потока : 129 Мбайт (2%)
Заголовок : АС3 2.0 @ 192 kbps - MVO, ORT
Язык : Russian
Default : Да
Forced : Нет
Аудио #3
Идентификатор : 4
Формат : AC-3
Формат/Информация : Audio Coding 3
Расширение режима : CM (complete main)
Параметр Endianness формата : Big
Идентификатор кодека : A_AC3
Продолжительность : 1 ч. 34 м.
Вид битрейта : Постоянный
Битрейт : 192 Кбит/сек
Каналы : 2 канала
Расположение каналов : Front: L R
Частота : 48,0 КГц
Битовая глубина : 16 бит
Метод сжатия : С потерями
Размер потока : 129 Мбайт (2%)
Заголовок : АС3 2.0 @ 192 kbps - MVO, NTV
Язык : Russian
Default : Нет
Forced : Нет
Аудио #4
Идентификатор : 5
Формат : AC-3
Формат/Информация : Audio Coding 3
Расширение режима : CM (complete main)
Параметр Endianness формата : Big
Идентификатор кодека : A_AC3
Продолжительность : 1 ч. 34 м.
Вид битрейта : Постоянный
Битрейт : 192 Кбит/сек
Каналы : 2 канала
Расположение каналов : Front: L R
Частота : 48,0 КГц
Битовая глубина : 16 бит
Метод сжатия : С потерями
Размер потока : 129 Мбайт (2%)
Заголовок : АС3 2.0 @ 192 kbps - MVO, Paramount Channel
Язык : Russian
Default : Нет
Forced : Нет
Аудио #5
Идентификатор : 6
Формат : AC-3
Формат/Информация : Audio Coding 3
Расширение режима : CM (complete main)
Параметр Endianness формата : Big
Идентификатор кодека : A_AC3
Продолжительность : 1 ч. 34 м.
Вид битрейта : Постоянный
Битрейт : 192 Кбит/сек
Каналы : 2 канала
Расположение каналов : Front: L R
Частота : 48,0 КГц
Битовая глубина : 16 бит
Метод сжатия : С потерями
Размер потока : 129 Мбайт (2%)
Заголовок : АС3 2.0 @ 192 kbps - MVO, STS
Язык : Russian
Default : Нет
Forced : Нет
Аудио #6
Идентификатор : 7
Формат : AC-3
Формат/Информация : Audio Coding 3
Расширение режима : CM (complete main)
Параметр Endianness формата : Big
Идентификатор кодека : A_AC3
Продолжительность : 1 ч. 34 м.
Вид битрейта : Постоянный
Битрейт : 192 Кбит/сек
Каналы : 2 канала
Расположение каналов : Front: L R
Частота : 48,0 КГц
Битовая глубина : 16 бит
Метод сжатия : С потерями
Размер потока : 129 Мбайт (2%)
Заголовок : АС3 2.0 @ 192 kbps - DVO, Fortuna Film
Язык : Russian
Default : Нет
Forced : Нет
Аудио #7
Идентификатор : 8
Формат : AC-3
Формат/Информация : Audio Coding 3
Расширение режима : CM (complete main)
Параметр Endianness формата : Big
Идентификатор кодека : A_AC3
Продолжительность : 1 ч. 34 м.
Вид битрейта : Постоянный
Битрейт : 192 Кбит/сек
Каналы : 2 канала
Расположение каналов : Front: L R
Частота : 48,0 КГц
Битовая глубина : 16 бит
Метод сжатия : С потерями
Размер потока : 129 Мбайт (2%)
Заголовок : АС3 2.0 @ 192 kbps - AVO, Gavrilov
Язык : Russian
Default : Нет
Forced : Нет
Аудио #8
Идентификатор : 9
Формат : AC-3
Формат/Информация : Audio Coding 3
Расширение режима : CM (complete main)
Параметр Endianness формата : Big
Идентификатор кодека : A_AC3
Продолжительность : 1 ч. 34 м.
Вид битрейта : Постоянный
Битрейт : 192 Кбит/сек
Каналы : 2 канала
Расположение каналов : Front: L R
Частота : 48,0 КГц
Битовая глубина : 16 бит
Метод сжатия : С потерями
Размер потока : 129 Мбайт (2%)
Заголовок : АС3 2.0 @ 192 kbps - AVO, Nemahov
Язык : Russian
Default : Нет
Forced : Нет
Аудио #9
Идентификатор : 10
Формат : AC-3
Формат/Информация : Audio Coding 3
Расширение режима : CM (complete main)
Параметр Endianness формата : Big
Идентификатор кодека : A_AC3
Продолжительность : 1 ч. 34 м.
Вид битрейта : Постоянный
Битрейт : 192 Кбит/сек
Каналы : 2 канала
Расположение каналов : Front: L R
Частота : 48,0 КГц
Битовая глубина : 16 бит
Метод сжатия : С потерями
Размер потока : 129 Мбайт (2%)
Заголовок : АС3 2.0 @ 192 kbps - VO, LNT
Язык : Russian
Default : Нет
Forced : Нет
Аудио #10
Идентификатор : 11
Формат : AC-3
Формат/Информация : Audio Coding 3
Расширение режима : CM (complete main)
Параметр Endianness формата : Big
Идентификатор кодека : A_AC3
Продолжительность : 1 ч. 34 м.
Вид битрейта : Постоянный
Битрейт : 640 Кбит/сек
Каналы : 6 каналов
Расположение каналов : Front: L C R, Side: L R, LFE
Частота : 48,0 КГц
Битовая глубина : 16 бит
Метод сжатия : С потерями
Размер потока : 431 Мбайт (6%)
Заголовок : АС3 5.1 @ 640 kbps - Original
Язык : English
Default : Нет
Forced : Нет
Текст #1
Идентификатор : 12
Формат : UTF-8
Идентификатор кодека : S_TEXT/UTF8
Идентификатор кодека/Информация : UTF-8 Plain Text
Заголовок : Full
Язык : Russian
Default : Нет
Forced : Нет
Текст #2
Идентификатор : 13
Формат : UTF-8
Идентификатор кодека : S_TEXT/UTF8
Идентификатор кодека/Информация : UTF-8 Plain Text
Заголовок : Full, DENnv
Язык : Russian
Default : Нет
Forced : Нет
Текст #3
Идентификатор : 14
Формат : UTF-8
Идентификатор кодека : S_TEXT/UTF8
Идентификатор кодека/Информация : UTF-8 Plain Text
Заголовок : Full
Язык : Ukrainian
Default : Нет
Forced : Нет
Текст #4
Идентификатор : 15
Формат : UTF-8
Идентификатор кодека : S_TEXT/UTF8
Идентификатор кодека/Информация : UTF-8 Plain Text
Заголовок : SDH
Язык : English
Default : Нет
Forced : Нет
Меню
00:00:00.000 : en:Credits
00:05:16.274 : en:Unexpected Ride
00:09:09.507 : en:Reckless Runaway
00:11:51.085 : en:Full of Good Humor
00:15:04.946 : en:Smasher Smasher
00:17:57.451 : en:Do This for Me
00:21:57.358 : en:Meet Me Half Way
00:25:15.431 : en:Driver's Seat
00:29:51.999 : en:The Challenge
00:33:25.503 : en:Good Genetics
00:35:49.522 : en:Kidnappers
00:39:19.482 : en:Sad News
00:44:15.152 : en:Confrontation
00:48:48.968 : en:What's Best
00:54:35.731 : en:For Love and Money
00:59:02.456 : en:Preliminaries
01:03:02.153 : en:Second Sucks
01:06:50.048 : en:Grizzly Semifinal
01:09:41.094 : en:I Got a Family
01:12:20.711 : en:Going to the Finals
01:14:37.848 : en:Over the Top
01:17:39.822 : en:All Michael Cares About
01:20:10.472 : en:World of Hurt
01:23:58.700 : en:The Victor
01:28:04.738 : en:End Credits
log x264
x264 [info]: frame I:912 Avg QP:16.32 size:125303
x264 [info]: frame P:27655 Avg QP:17.47 size: 72876
x264 [info]: frame B:106079 Avg QP:19.65 size: 37797
x264 [info]: consecutive B-frames: 1.2% 1.4% 4.6% 24.9% 18.0% 40.9% 4.7% 2.8% 0.8% 0.5% 0.1% 0.0% 0.0% 0.0% 0.0% 0.1%
x264 [info]: Weighted P-Frames: Y:6.7% UV:4.5%
x264 [info]: ref P L0: 36.2% 11.1% 19.6% 7.8% 6.8% 4.6% 4.4% 2.5% 2.5% 2.0% 2.1% 0.2% 0.0%
x264 [info]: ref B L0: 76.8% 10.4% 4.5% 2.5% 1.7% 1.5% 1.2% 0.8% 0.5% 0.3%
x264 [info]: ref B L1: 94.7% 5.3%
x264 [info]: kb/s:8745.40
Скриншоты Comparison
Source ~ Rip ~ [url=http://***/forum/viewtopic.php?t=2860128]arestarh1986[/url]




Цитата:
  • За дорогу №2 спасибо «[url=http://***/forum/profile.php?mode=viewprofile&u=18484023]Liu Jian[/url]»
  • За дороги №4,9 спасибо «[url=http://***/forum/profile.php?mode=viewprofile&u=20398762]JUSTKANT[/url]»
  • За дороги №5,6 спасибо «Diablo»
  • За украинские субтитры спасибо «subsvin2»
Скачать

Скачать торрент!

Как скачивать? · Что такое торрент? · Рейтинг и ограничения

Сайт не распространяет и не хранит электронные версии произведений, а лишь предоставляет доступ к создаваемому пользователями каталогу ссылок на торрент-файлы, которые содержат только списки хеш-сумм

[Профиль] [ЛС]
Показать сообщения:    
Ответить на тему

Текущее время: Сегодня 04:11

Часовой пояс: GMT + 4



Вы не можете начинать темы
Вы не можете отвечать на сообщения
Вы не можете редактировать свои сообщения
Вы не можете удалять свои сообщения
Вы не можете голосовать в опросах
Вы не можете прикреплять файлы к сообщениям
Вы не можете скачивать файлы