Меня зовут Кхан / My Name Is Khan (Каран Джохар / Karan Johar) [2010, Индия, Триллер, драма, мелодрама, BDRip] Dub + (VO Вставки)

Ответить на тему
 
Автор Сообщение

user ®

Стаж: 12 лет

Сообщений: 15092

Пост Пост: #1 от 08-Июл-2015 11:48

[Цитировать]

Меня зовут Кхан / My Name Is Khan
«Обычный человек, необычайное путешествие... во имя любви»
- Год выпуска: 2010
Выпущено: Индия / Millennium Films
Жанр: триллер, драма, мелодрама
Продолжительность: 02:41:31
Перевод: Профессиональный (полное дублирование) + вставки Zamez
Субтитры: нет-Режиссер:
Каран Джохар / Karan Johar-В ролях:
Шах Рукх Кхан (Rizvan Khan), Каджол (Mandira Khan), Кэти А. Кин (Sarah Garrick), Кентон Дюти (Reese Garrick), Бенни Нивз (Detective Garcia), Кристофер Б. Дункан (President Barack Obama), Джимми Шергилл (Zakir Khan), Соня Джехан (Hasina Khan), Парвин Дабас (Bobby Ahuja), Арджун Матур (Raj Burman)-Описание:
Ризван Кхан, мусульманин из Индии, переезжает в Сан-Франциско и живет со своим братом и невесткой. Ризван, страдающий от Синдрома Аспергера, влюбляется в Мандиру. Несмотря на протесты его семьи, они женятся и начинают вместе небольшой бизнес. Они живут счастливо до 11 сентября 2001 года, когда отношение к мусульманам резко меняется. Когда происходит трагедия, Мандира оказывается раздавленной и их отношения дают трещину. Ризван растерян и очень расстроен тем, что любовь всей его жизни покинула его. Чтобы вернуть ее, он предпринимает трогательное и вдохновляющее путешествие через всю Америку.-Релиз групп [url=http://***/forum/viewtopic.php?t=1677970] [/url] | | IMDB | КиноПоиск | Сэмпл |-Качество: BDRip [[url=http://***/forum/viewtopic.php?t=3995331]BDRemux[/url]]
Формат: AVI
Видео: 720x304 (2.37:1), 24.000 fps, XviD build 73 ~1545 kbps avg, 0.29 bit/pixel
Аудио: 48 kHz, AC3 Dolby Digital, 3/2 (L,C,R,l,r) + LFE ch, ~384.00 kbps avg
-Скриншоты MediaInfo
General
Complete name                            : D:\Menya_zovut_Khan_2010_BDRip_[2.18]_by_Dalemake.avi
Format                                   : AVI
Format/Info                              : Audio Video Interleave
Format profile                           : OpenDML
File size                                : 2.18 GiB
Duration                                 : 2h 41mn
Overall bit rate                         : 1 936 Kbps
Writing application                      : VirtualDubMod 1.5.10.3 | www.virtualdub-fr.org || (build 2550/release)
Writing library                          : VirtualDubMod build 2550/release
Video
ID                                       : 0
Format                                   : MPEG-4 Visual
Format profile                           : Advanced Simple@L5
Format settings, BVOP                    : 1
Format settings, QPel                    : No
Format settings, GMC                     : No warppoints
Format settings, Matrix                  : Custom
Codec ID                                 : XVID
Codec ID/Hint                            : XviD
Duration                                 : 2h 41mn
Bit rate                                 : 1 540 Kbps
Width                                    : 720 pixels
Height                                   : 304 pixels
Display aspect ratio                     : 2.35:1
Frame rate                               : 24.000 fps
Color space                              : YUV
Chroma subsampling                       : 4:2:0
Bit depth                                : 8 bits
Scan type                                : Progressive
Compression mode                         : Lossy
Bits/(Pixel*Frame)                       : 0.293
Stream size                              : 1.74 GiB (80%)
Writing library                          : XviD 73
Audio
ID                                       : 1
Format                                   : AC-3
Format/Info                              : Audio Coding 3
Mode extension                           : CM (complete main)
Format settings, Endianness              : Big
Codec ID                                 : 2000
Duration                                 : 2h 41mn
Bit rate mode                            : Constant
Bit rate                                 : 384 Kbps
Channel(s)                               : 6 channels
Channel positions                        : Front: L C R, Side: L R, LFE
Sampling rate                            : 48.0 KHz
Bit depth                                : 16 bits
Compression mode                         : Lossy
Stream size                              : 444 MiB (20%)
Alignment                                : Split accross interleaves
Interleave, duration                     : 42 ms (1.00 video frame)
Interleave, preload duration             : 500 ms
Сравнение
[url=http://***/forum/viewtopic.php?t=3442536]http://***/forum/viewtopic.php?t=3442536[/url]
http://screenshotcomparison.com/comparison/134126
+ писал(а):
Format settings, BVOP : 3
-[url=http://***/forum/viewtopic.php?t=3417766]http://***/forum/viewtopic.php?t=3417766[/url]
http://screenshotcomparison.com/comparison/134127-
Скачать

Скачать торрент! Меня зовут Кхан / My Name Is Khan (Каран Джохар / Karan Johar) [2010, Индия, Триллер, драма, мелодрама, BDRip] Dub + (VO Вставки)

Как скачивать? · Что такое торрент? · Рейтинг и ограничения

Сайт не распространяет и не хранит электронные версии произведений, а лишь предоставляет доступ к создаваемому пользователями каталогу ссылок на торрент-файлы, которые содержат только списки хеш-сумм

[Профиль] [ЛС]
Показать сообщения:    
Ответить на тему

Текущее время: Сегодня 11:34

Часовой пояс: GMT + 4



Вы не можете начинать темы
Вы не можете отвечать на сообщения
Вы не можете редактировать свои сообщения
Вы не можете удалять свои сообщения
Вы не можете голосовать в опросах
Вы не можете прикреплять файлы к сообщениям
Вы не можете скачивать файлы