О Боже, ты велик! / God Tussi Great Ho (Руми Джаффери / Rumi Jaffery) [2008, Индия, Драма, мелодрама, комедия, DVDRip] DVO (Амир)

Ответить на тему
 
Автор Сообщение

user ®

Стаж: 12 лет

Сообщений: 15092

Пост Пост: #1 от 07-Июл-2015 23:21

[Цитировать]

О Боже, ты велик! / God Tussi Great Ho
Страна: Индия
Жанр: Драма, мелодрама, комедия
Год выпуска: 2008
Продолжительность: 02:26:25
Перевод: Профессиональный (двухголосый закадровый) Амир
Cубтитры: нет
Режиссер: Руми Джаффери / Rumi Jaffery
В ролях: Амитабх Баччан, Салман Кхан, Приянка Чопра, Анупам Кхер, Бина Как, Рукхсар, Снехал Даби, Пунит Иссар, Сатиш Каушик, Сохаил Кхан
Описание: В конце худшего дня своей жизни Арун Праджапати гневно бунтует против Бога за то, что тот делает его жизнь несчастной. К его удивлению, Господь является ему в человеческом облике и обеспечивает Аруна своими божественными полномочиями. Он бросает Аруну вызов: сможет ли тот взяться за большую работу и выполнить ее лучше всех? Арун берется за свою миссию с искренним рвением, но попадает в одну беду за другой. Любовь его жизни Алия с изумлением смотрит на «нового» Аруна, активного и уверенного в себе. Арун думает, что он сможет сделать мир счастливым местом, где исполняются желания каждого человека. Но Арун осознает, что быть Богом намного труднее, чем он думал.
Доп. информация: Исходник [url=http://***/forum/viewtopic.php?t=1797275]DVD-9[/url] (СПАСИБО! RU_Adriana)
Сэмпл: http://multi-up.com/1057491
Качество видео: DVDRip
Формат видео: AVI
Видео: XviD build 50, 688x288 (2.39:1), 29.970 fps, 1293 kbps avg
Аудио: MPEG Layer 3, 48 kHz, 2/0 (L,R) ch, 128.00 kbps
MediaInfo
General
Complete name : F:\O.Boge.Ti.Velik.2008.XviD.DVDRip-Dego.avi
Format : AVI
Format/Info : Audio Video Interleave
File size : 1.47 GiB
Duration : 2h 26mn
Overall bit rate : 1 433 Kbps
Writing application : VirtualDubMod 1.5.10.2 (build 2540/release)
Writing library : VirtualDubMod build 2540/release
Video
ID : 0
Format : MPEG-4 Visual
Format profile : AdvancedSimple@L5
Format settings, BVOP : Yes
Format settings, QPel : No
Format settings, GMC : No warppoints
Format settings, Matrix : Custom
Codec ID : XVID
Codec ID/Hint : XviD
Duration : 2h 26mn
Bit rate : 1 294 Kbps
Width : 688 pixels
Height : 288 pixels
Display aspect ratio : 2.35
Frame rate : 29.970 fps
Resolution : 24 bits
Colorimetry : 4:2:0
Scan type : Progressive
Bits/(Pixel*Frame) : 0.218
Stream size : 1.32 GiB (90%)
Writing library : XviD 1.2.1 (UTC 2008-12-04)
Audio
ID : 1
Format : MPEG Audio
Format version : Version 1
Format profile : Layer 3
Codec ID : 55
Codec ID/Hint : MP3
Duration : 2h 26mn
Bit rate mode : Constant
Bit rate : 128 Kbps
Channel(s) : 2 channels
Sampling rate : 48.0 KHz
Resolution : 16 bits
Stream size : 134 MiB (9%)
Alignment : Aligned on interleaves
Interleave, duration : 33 ms (1.00 video frame)
Interleave, preload duration : 504 ms
Writing library : LAME3.98r
Encoding settings : -m j -V 4 -q 2 -lowpass 17 -b 128
Скриншоты
Скачать

Скачать торрент! О Боже, ты велик! / God Tussi Great Ho (Руми Джаффери / Rumi Jaffery) [2008, Индия, Драма, мелодрама, комедия, DVDRip] DVO (Амир)

Как скачивать? · Что такое торрент? · Рейтинг и ограничения

Сайт не распространяет и не хранит электронные версии произведений, а лишь предоставляет доступ к создаваемому пользователями каталогу ссылок на торрент-файлы, которые содержат только списки хеш-сумм

[Профиль] [ЛС]
Показать сообщения:    
Ответить на тему

Текущее время: Сегодня 14:23

Часовой пояс: GMT + 4



Вы не можете начинать темы
Вы не можете отвечать на сообщения
Вы не можете редактировать свои сообщения
Вы не можете удалять свои сообщения
Вы не можете голосовать в опросах
Вы не можете прикреплять файлы к сообщениям
Вы не можете скачивать файлы