Возмездие / Edge of Darkness (Мартин Кэмпбелл / Martin Campbell) [2010, Великобритания, США, криминал, драма, мистика, BDRip 720p] Dub + 2x AVO (Сербин, Гаврилов) + VO (Есарев) + Sub Rus, Eng + Original Eng

Ответить на тему
 
Автор Сообщение

user ®

Стаж: 7 лет 7 месяцев

Сообщений: 20008

Пост Пост: #1 от 07-Июл-2015 23:21

[Цитировать]

Возмездие / Edge of Darkness
Страна: Великобритания, США
Студия: BBC Films, GK Films, Icon Productions, Warner Bros. Pictures
Жанр: криминал, драма, мистика
Год выпуска: 2010
Продолжительность: 01:56:22
Перевод 1: Профессиональный (дублированный) Blu-Ray RUS
Перевод 2: Авторский (одноголосый закадровый) Сербин Юрий
Перевод 3: Одноголосый (закадровый) Есарев Дмитрий
Перевод 4: Авторский (одноголосый закадровый) Гаврилов Андрей
Cубтитры: русские, английские
Оригинальная аудиодорожка: английский
Режиссер: Мартин Кэмпбелл / Martin Campbell
В ролях: Мэл Гибсон, Рэй Уинстон, Дэнни Хьюстон, Бояна Новакович, Шон Робертс, Дэвид Аарон Бэйкер, Джей О. Сэндерс, Дэнис О’Хэйр, Дэмиэн Янг, Катерина Скорсоне
Описание: Томас Крейвен - полицейский детектив, чья дочь однажды была убита. Едва начав расследование, герой обнаруживает, что смерть ее не была случайной, и следы приводят к коррумпированным системам власти.
Сэмпл: Скачать
Тип релиза: BDRip 720p (SbR)
Контейнер: MKV
Видео: 1280x534, 24 fps, x264 ~6972 kbps
Аудио: Русский DTS 5.1, 48 kHz, 1509 kbps |Дублированный|
Аудио 2: Русский DTS 5.1, 48 kHz, 1509 kbps |Сербин|
Аудио 3: Русский DTS 5.1, 48 kHz, 1509 kbps |Есарев|
Аудио 4: Русский DTS 5.1, 48 kHz, 1509 kbps |Гаврилов|
Аудио 5: Английский DTS 5.1, 48 kHz, 1509 kbps
Формат субтитров: softsub (SRT)

MediaInfo
General
Unique ID : 232675650960511494517015562692598245187 (0xAF0BB34A3BCA5C30A920D03340C52743)
Complete name : G:\Edge.of.Darkness.2010.720p.BluRay.4xRus.Eng-SbR.mkv
Format : Matroska
Format version : Version 4 / Version 2
File size : 11.8 GiB
Duration : 1h 56mn
Overall bit rate : 14.5 Mbps
Movie name : Edge of Darkness (2010) - Encode by SbR
Encoded date : UTC 2015-07-03 08:58:46
Writing application : mkvmerge v8.1.0 ('Psychedelic Postcard') 64bit
Writing library : libebml v1.3.1 + libmatroska v1.4.2
Attachements : cover.jpg / xlog.txt
Video
ID : 1
Format : AVC
Format/Info : Advanced Video Codec
Format profile : High@L4.1
Format settings, CABAC : Yes
Format settings, ReFrames : 12 frames
Codec ID : V_MPEG4/ISO/AVC
Duration : 1h 56mn
Bit rate : 6 689 Kbps
Width : 1 280 pixels
Height : 534 pixels
Display aspect ratio : 2.40:1
Frame rate mode : Constant
Frame rate : 24.000 fps
Color space : YUV
Chroma subsampling : 4:2:0
Bit depth : 8 bits
Scan type : Progressive
Bits/(Pixel*Frame) : 0.408
Stream size : 5.44 GiB (46%)
Writing library : x264 core 146 r2538kMod 121396c
Encoding settings : cabac=1 / ref=12 / deblock=1:-2:-2 / analyse=0x3:0x133 / me=umh / subme=11 / psy=1 / fade_compensate=0.00 / psy_rd=1.00:0.00 / mixed_ref=1 / me_range=32 / chroma_me=1 / trellis=2 / 8x8dct=1 / cqm=0 / deadzone=21,11 / fast_pskip=1 / chroma_qp_offset=-2 / threads=12 / lookahead_threads=2 / sliced_threads=0 / nr=0 / decimate=1 / interlaced=0 / bluray_compat=0 / constrained_intra=0 / fgo=0 / bframes=8 / b_pyramid=2 / b_adapt=2 / b_bias=0 / direct=1 / weightb=1 / open_gop=0 / weightp=2 / keyint=250 / keyint_min=24 / scenecut=40 / intra_refresh=0 / rc_lookahead=60 / rc=crf / mbtree=0 / crf=16.0000 / qcomp=0.70 / qpmin=0 / qpmax=69 / qpstep=4 / vbv_maxrate=62500 / vbv_bufsize=78125 / crf_max=0.0 / nal_hrd=none / filler=0 / ip_ratio=1.40 / pb_ratio=1.30 / aq=1:0.80
Language : English
Default : Yes
Forced : No
Color range : Limited
Color primaries : BT.709
Transfer characteristics : BT.709
Matrix coefficients : BT.709
Audio #1
ID : 2
Format : DTS
Format/Info : Digital Theater Systems
Mode : 16
Format settings, Endianness : Big
Codec ID : A_DTS
Duration : 1h 56mn
Bit rate mode : Constant
Bit rate : 1 509 Kbps
Channel(s) : 6 channels
Channel positions : Front: L C R, Side: L R, LFE
Sampling rate : 48.0 KHz
Bit depth : 16 bits
Compression mode : Lossy
Stream size : 1.23 GiB (10%)
Title : Дубляж
Language : Russian
Default : Yes
Forced : No
Audio #2
ID : 3
Format : DTS
Format/Info : Digital Theater Systems
Mode : 16
Format settings, Endianness : Big
Codec ID : A_DTS
Duration : 1h 56mn
Bit rate mode : Constant
Bit rate : 1 509 Kbps
Channel(s) : 6 channels
Channel positions : Front: L C R, Side: L R, LFE
Sampling rate : 48.0 KHz
Bit depth : 16 bits
Compression mode : Lossy
Stream size : 1.23 GiB (10%)
Title : Сербин
Language : Russian
Default : No
Forced : No
Audio #3
ID : 4
Format : DTS
Format/Info : Digital Theater Systems
Mode : 16
Format settings, Endianness : Big
Codec ID : A_DTS
Duration : 1h 56mn
Bit rate mode : Constant
Bit rate : 1 509 Kbps
Channel(s) : 6 channels
Channel positions : Front: L C R, Side: L R, LFE
Sampling rate : 48.0 KHz
Bit depth : 16 bits
Compression mode : Lossy
Stream size : 1.23 GiB (10%)
Title : Есарев
Language : Russian
Default : No
Forced : No
Audio #4
ID : 5
Format : DTS
Format/Info : Digital Theater Systems
Mode : 16
Format settings, Endianness : Big
Codec ID : A_DTS
Duration : 1h 56mn
Bit rate mode : Constant
Bit rate : 1 509 Kbps
Channel(s) : 6 channels
Channel positions : Front: L C R, Side: L R, LFE
Sampling rate : 48.0 KHz
Bit depth : 16 bits
Compression mode : Lossy
Stream size : 1.23 GiB (10%)
Title : Гаврилов
Language : Russian
Default : No
Forced : No
Audio #5
ID : 6
Format : DTS
Format/Info : Digital Theater Systems
Mode : 16
Format settings, Endianness : Big
Codec ID : A_DTS
Duration : 1h 56mn
Bit rate mode : Constant
Bit rate : 1 509 Kbps
Channel(s) : 6 channels
Channel positions : Front: L C R, Side: L R, LFE
Sampling rate : 48.0 KHz
Bit depth : 16 bits
Compression mode : Lossy
Stream size : 1.23 GiB (10%)
Language : English
Default : No
Forced : No
Text #1
ID : 7
Format : UTF-8
Codec ID : S_TEXT/UTF8
Codec ID/Info : UTF-8 Plain Text
Title : Воронин
Language : Russian
Default : No
Forced : No
Text #2
ID : 8
Format : UTF-8
Codec ID : S_TEXT/UTF8
Codec ID/Info : UTF-8 Plain Text
Language : English
Default : No
Forced : No
Menu
00:00:00.000 : en:Chapter 1
00:04:54.665 : en:Chapter 2
00:11:14.582 : en:Chapter 3
00:19:04.625 : en:Chapter 4
00:25:06.290 : en:Chapter 5
00:32:50.375 : en:Chapter 6
00:41:42.625 : en:Chapter 7
00:50:11.166 : en:Chapter 8
00:54:42.832 : en:Chapter 9
01:00:59.791 : en:Chapter 10
01:08:07.625 : en:Chapter 11
01:16:30.000 : en:Chapter 12
01:23:10.875 : en:Chapter 13
01:32:14.457 : en:Chapter 14
01:38:56.832 : en:Chapter 15
01:48:53.416 : en:Chapter 16
xlog
raw [info]: 1280x534p 1:1 @ 24/1 fps (cfr)
x264 [info]: using SAR=1/1
x264 [info]: using cpu capabilities: MMX2 SSE2Fast SSSE3 SSE4.2 AVX
x264 [info]: profile High, level 4.1
x264 [info]: frame I:1400 Avg QP:13.49 size:141246
x264 [info]: frame P:32188 Avg QP:15.03 size: 61201
x264 [info]: frame B:133979 Avg QP:16.93 size: 29237
x264 [info]: consecutive B-frames: 1.6% 1.2% 7.0% 7.8% 12.4% 53.6% 8.8% 2.9% 4.5%
x264 [info]: mb I I16..4: 6.3% 80.6% 13.2%
x264 [info]: mb P I16..4: 0.8% 23.0% 1.2% P16..4: 19.3% 26.0% 18.1% 3.0% 0.2% skip: 8.4%
x264 [info]: mb B I16..4: 0.2% 4.9% 0.2% B16..8: 30.1% 24.9% 8.8% direct: 8.6% skip:22.4% L0:48.8% L1:36.1% BI:15.0%
x264 [info]: 8x8 transform intra:91.8% inter:53.5%
x264 [info]: coded y,uvDC,uvAC intra: 94.4% 96.0% 90.8% inter: 46.8% 38.9% 20.5%
x264 [info]: i16 v,h,dc,p: 70% 9% 9% 12%
x264 [info]: i8 v,h,dc,ddl,ddr,vr,hd,vl,hu: 10% 9% 16% 9% 12% 11% 11% 10% 12%
x264 [info]: i4 v,h,dc,ddl,ddr,vr,hd,vl,hu: 19% 8% 11% 8% 12% 11% 11% 9% 11%
x264 [info]: i8c dc,h,v,p: 61% 13% 11% 15%
x264 [info]: Weighted P-Frames: Y:3.9% UV:1.8%
x264 [info]: ref P L0: 36.0% 8.4% 19.3% 7.4% 7.5% 4.7% 5.1% 2.7% 2.8% 2.0% 2.3% 1.7% 0.1% 0.0%
x264 [info]: ref B L0: 57.6% 14.8% 8.0% 5.0% 3.8% 3.4% 2.7% 1.9% 1.6% 0.9% 0.3%
x264 [info]: ref B L1: 89.5% 10.5%
x264 [info]: kb/s:6972.10
encoded 167567 frames, 6.50 fps, 6972.10 kb/s, duration 7:09:59.28
Скриншоты
Encode vs. Source vs. [url=http://***/forum/viewtopic.php?t=3949536]HiDt[/url] vs. [url=http://***/forum/viewtopic.php?t=2929798]kinozal[/url]



Дополнительно
За ремукс спасибо Прагматик с hdclub.
За дорожку с переводом Гаврилова спасибо hdtracker.
Скачать

Скачать торрент!

Как скачивать? · Что такое торрент? · Рейтинг и ограничения

Сайт не распространяет и не хранит электронные версии произведений, а лишь предоставляет доступ к создаваемому пользователями каталогу ссылок на торрент-файлы, которые содержат только списки хеш-сумм

[Профиль] [ЛС]
Показать сообщения:    
Ответить на тему

Текущее время: Сегодня 08:05

Часовой пояс: GMT + 4



Вы не можете начинать темы
Вы не можете отвечать на сообщения
Вы не можете редактировать свои сообщения
Вы не можете удалять свои сообщения
Вы не можете голосовать в опросах
Вы не можете прикреплять файлы к сообщениям
Вы не можете скачивать файлы