Охота на Веронику / Veronica Guerin (Джоэл Шумахер / Joel Schumacher) [2003, Ирландия, Великобритания, США, Триллер, драма, криминал, биография, HDTV 1080i] MVO (1 канал)

Ответить на тему
 
Автор Сообщение

user ®

Стаж: 7 лет 7 месяцев

Сообщений: 20008

Пост Пост: #1 от 07-Июл-2015 23:21

[Цитировать]

Охота на Веронику / Veronica Guerin
Страна: Ирландия, Великобритания, США
Жанр: Триллер, драма, криминал, биография
Год выпуска: 2003
Продолжительность: 01:30:15
Перевод: Профессиональный (многоголосый закадровый) 1 канал
Cубтитры: нет
Оригинальная аудиодорожка: нет
Режиссер: Джоэл Шумахер / Joel Schumacher
В ролях: Кейт Бланшетт, Джерард МакСорли, Киаран Хиндс, Бренда Фрикер, Дон Вичерли, Бэрри Барнс, Simon O'Driscoll, Эммет Бергин, Шарлотта Брэдли, Марк Лэмберт
Описание: Середина 90-х. В Ирландии идет настоящая война католиков и протестантов. Ситуация осложняется разборками среди местных наркобаронов. Всю страшную правду о преступлениях люди узнают не от полиции и государственных чиновников, а от бесстрашной журналистки независимого издания Вероники Герин. Рискуя карьерой, жизнью и семьей, она добывает самые достоверные факты. Однако ее статьи не по нраву подпольным наркодилерам, и на нее открывают настоящую охоту. Но с каждым новым покушением Вероника становится все более популярной…
Сэмпл: http://multi-up.com/1057320
Тип релиза: HDTV 1080i
Контейнер: TS
Видео: AVC, 1920x1080 (16:9), 25.000 fps, 10.4 Mbps (0.201 bit/pixel)
Аудио: MP2, 48.0 KHz, 2 ch, 192 Kbps, CBR (Russian)
MediaInfo
Общее
Идентификатор : 3 (0x3)
Полное имя : K:\Охота на Веронику.ts
Формат : MPEG-TS
Размер файла : 7,04 Гбайт
Продолжительность : 1 ч. 30 м.
Режим общего битрейта : Переменный
Общий поток : 11,2 Мбит/сек
Видео
Идентификатор : 2141 (0x85D)
Идентификатор меню : 21004 (0x520C)
Формат : AVC
Формат/Информация : Advanced Video Codec
Профиль формата : Main@L4
Параметр CABAC формата : Да
Параметр ReFrames формата : 3 кадра
Идентификатор кодека : 27
Продолжительность : 1 ч. 30 м.
Битрейт : 10,4 Мбит/сек
Ширина : 1920 пикселей
Высота : 1080 пикселей
Соотношение сторон : 16:9
Частота кадров : 25,000 кадров/сек
Стандарт вещания : Component
Цветовое пространство : YUV
Субдискретизация насыщенности : 4:2:0
Битовая глубина : 8 бит
Тип развёртки : Чересстрочная
Порядок развёртки : Верхнее поле первое
Бит/(Пиксели*Кадры) : 0.201
Размер потока : 6,57 Гбайт (93%)
Цветовой диапазон : Limited
Основные цвета : BT.709
Характеристики трансфера : BT.709
Коэффициенты матрицы : BT.709
Аудио
Идентификатор : 2142 (0x85E)
Идентификатор меню : 21004 (0x520C)
Формат : MPEG Audio
Версия формата : Version 1
Профиль формата : Layer 2
Идентификатор кодека : 4
Продолжительность : 1 ч. 30 м.
Вид битрейта : Постоянный
Битрейт : 192 Кбит/сек
Каналы : 2 канала
Частота : 48,0 КГц
Метод сжатия : С потерями
Задержка видео : -4 мс.
Размер потока : 124 Мбайт (2%)
Язык : Russian
Скриншоты
Скачать

Скачать торрент!

Как скачивать? · Что такое торрент? · Рейтинг и ограничения

Сайт не распространяет и не хранит электронные версии произведений, а лишь предоставляет доступ к создаваемому пользователями каталогу ссылок на торрент-файлы, которые содержат только списки хеш-сумм

[Профиль] [ЛС]
Показать сообщения:    
Ответить на тему

Текущее время: Сегодня 17:49

Часовой пояс: GMT + 4



Вы не можете начинать темы
Вы не можете отвечать на сообщения
Вы не можете редактировать свои сообщения
Вы не можете удалять свои сообщения
Вы не можете голосовать в опросах
Вы не можете прикреплять файлы к сообщениям
Вы не можете скачивать файлы