Девочки-камикадзе / Kamikaze Girls (Тэцуя Накасима / Tetsuya Nakashima) [2004, Япония, Комедия, приключения, DVDRip] MVO (Izanami & den904 & DeadSno)

Ответить на тему
 
Автор Сообщение

user ®

Стаж: 13 лет

Сообщений: 15071

Пост Пост: #1 от 07-Июл-2015 20:15

[Цитировать]

Девочки-камикадзе / Kamikaze Girls
Страна: Япония
Жанр: Комедия, приключения
Год выпуска: 2004
Продолжительность: 2 по 50 минут
Перевод: Любительский (многоголосый закадровый) Izanami & den904 & DeadSno по переводу Akira9
Cубтитры: нет
Оригинальная аудиодорожка: нет
Режиссер: Тэцуя Накасима / Tetsuya Nakashima
В ролях: Кёко Фукада, Анна Цутия, Хироюки Миясако, Садао Абэ, Эйко Койке, Шин Язава, Хиротаро Хонда, Кирин Кики, Йошийоши Аракава, Катсухиса Намасе
Описание: Момоко спасется от провинциальной скуки, наряжаясь в розовые кукольные платьица. Однажды она встречает свою диаметральную противоположность — Итиго, разбитную деваху, красящую губы черной помадой и разъезжающую на мотоцикле. Несмотря на различия в характере, девочки становятся подругами. Момоко утешает Итиго, страдающую от любви к местному щеголю, и, будучи искусной вышивальщицей, украшает ее рокерский наряд. В благодарность Итиго отводит подругу в бутик, где она сможет поработать у своего любимого дизайнера. Однако прежним дружкам Итиго не по душе ее дружба с Момоко, назревает конфликт, сулящий большие неприятности…
Сэмпл: http://multi-up.com/1057480
Качество видео: DVDRip
Формат видео: AVI
Видео: XVID, 640x352, 1748 kbps, 23.976 fps (файл 1), XVID, 640x352, 1712 kbps, 23.976 fps (файл 2)
Аудио: AC-3, 192 kbps, 48 kHz, 2 ch
MediaInfo
Format: AVI
Format/Info: Audio Video Interleave
File size: 696 MiB
Duration: 49mn 54s
Overall bit rate: 1 950 Kbps
Writing application: VirtualDubModRus 1.5.10.2 (build 2542/release)
Writing library: VirtualDubMod build 2542/release
Format: MPEG-4 Visual
Format profile: Advanced Simple@L5
Format settings, BVOP: 1
Format settings, QPel: Yes
Format settings, GMC: No warppoints
Format settings, Matrix: Default (H.263)
Muxing mode: Packed bitstream
Codec ID: XVID
Codec ID/Hint: XviD
Duration: 49mn 54s
Bit rate: 1 748 Kbps
Width: 640 pixels
Height: 352 pixels
Display aspect ratio: 16:9
Frame rate: 23.976 fps
Color space: YUV
Chroma subsampling: 4:2:0
Bit depth: 8 bits
Scan type: Progressive
Compression mode: Lossy
Bits/(Pixel*Frame): 0.324
Stream size: 624 MiB (90%)
Writing library: XviD 1.1.2 (UTC 2006-11-01)
Format: AC-3
Format/Info: Audio Coding 3
Mode extension: CM (complete main)
Format settings, Endianness: Big
Codec ID: 2000
Duration: 49mn 54s
Bit rate mode: Constant
Bit rate: 192 Kbps
Channel(s): 2 channels
Channel positions: Front: L R
Sampling rate: 48.0 KHz
Bit depth: 16 bits
Compression mode: Lossy
Stream size: 68.5 MiB (10%)
Alignment: Split accross interleaves
Interleave, duration: 42 ms (1.00 video frame)
Interleave, preload duration: 500 ms
Format: AVI
Format/Info: Audio Video Interleave
File size: 700 MiB
Duration: 51mn 8s
Overall bit rate: 1 914 Kbps
Writing application: VirtualDubModRus 1.5.10.2 (build 2542/release)
Writing library: VirtualDubMod build 2542/release
Format: MPEG-4 Visual
Format profile: Advanced Simple@L5
Format settings, BVOP: 1
Format settings, QPel: Yes
Format settings, GMC: No warppoints
Format settings, Matrix: Default (H.263)
Muxing mode: Packed bitstream
Codec ID: XVID
Codec ID/Hint: XviD
Duration: 51mn 8s
Bit rate: 1 712 Kbps
Width: 640 pixels
Height: 352 pixels
Display aspect ratio: 16:9
Frame rate: 23.976 fps
Color space: YUV
Chroma subsampling: 4:2:0
Bit depth: 8 bits
Scan type: Progressive
Compression mode: Lossy
Bits/(Pixel*Frame): 0.317
Stream size: 626 MiB (89%)
Writing library: XviD 1.1.2 (UTC 2006-11-01)
Format: AC-3
Format/Info: Audio Coding 3
Mode extension: CM (complete main)
Format settings, Endianness: Big
Codec ID: 2000
Duration: 51mn 8s
Bit rate mode: Constant
Bit rate: 192 Kbps
Channel(s): 2 channels
Channel positions: Front: L R
Sampling rate: 48.0 KHz
Bit depth: 16 bits
Compression mode: Lossy
Stream size: 70.2 MiB (10%)
Alignment: Split accross interleaves
Interleave, duration: 42 ms (1.00 video frame)
Interleave, preload duration: 500 ms
Скриншот c названием фильма Скриншоты
Скачать

Скачать торрент! Девочки-камикадзе / Kamikaze Girls (Тэцуя Накасима / Tetsuya Nakashima) [2004, Япония, Комедия, приключения, DVDRip] MVO (Izanami & den904 & DeadSno)

Как скачивать? · Что такое торрент? · Рейтинг и ограничения

Сайт не распространяет и не хранит электронные версии произведений, а лишь предоставляет доступ к создаваемому пользователями каталогу ссылок на торрент-файлы, которые содержат только списки хеш-сумм

[Профиль] [ЛС]
Показать сообщения:    
Ответить на тему

Текущее время: Сегодня 20:37

Часовой пояс: GMT + 4



Вы не можете начинать темы
Вы не можете отвечать на сообщения
Вы не можете редактировать свои сообщения
Вы не можете удалять свои сообщения
Вы не можете голосовать в опросах
Вы не можете прикреплять файлы к сообщениям
Вы не можете скачивать файлы