Фобия любви / Томящийся от любви / Love Phobia / Lian ai kong huang zheng (Роки Джо / Rocky Jo) [2011, Тайвань, комедия, романтика, DVDRip] DVO

Ответить на тему
 
Автор Сообщение

user ®

Стаж: 13 лет

Сообщений: 15071

Пост Пост: #1 от 07-Июл-2015 10:57

[Цитировать]

Фобия любви / Томящийся от любви / Love Phobia / Lian ai kong huang zheng
Страна: Тайвань
Жанр: комедия, романтика
Год выпуска: 2011
Продолжительность: 01:31:59
Перевод: Любительский (двухголосый закадровый) STEPonee
Роли озвучивали:
Мэри и Валерий Феодосов
Cубтитры: нет
Режиссер: Роки Джо / Rocky Jo
В ролях: Ариэль Линь , Уилсон Чен , Ли И Фэн, Кинг Чин
Описание: Жила была на свете девушка-ромашка Ро Чинь, которая верила в истинную любовь. Встретила она своего рыцаря в сияющих доспехах Арона и жили они долго и счастливо.... Блин…рыцарю же предложили стать звездой, как тут отказаться? Заболел он звездной болезнью и бросил свою девушку. Долго плакала Ро Чинь, места не находила, но вот добрая тетя - «фея крестная» взяла ее на свои курсы и превратила в настоящего воина. А девизом всей этой кампании стало: «Все мужики сво…». Так и жила наша барышня без парня, зато с кучей всяких правил и бойцовскими навыками, пока не встретила Лу Цзян Ханя – красавца, да еще и успешного молодого хирурга. Ну как тут поверить в то, что он не очередной козел?)) И решила она во что бы то ни стало вывести его на чистую воду…
Сэмпл: http://sendfile.su/1133885
Качество видео: DVDRip
Формат видео: AVI
Видео: 624x256 (2.44:1), 23.976 fps, XviD build 50 ~940 kbps avg, 0.25 bit/pixel
Аудио: 48 kHz, MPEG Layer 3, 2 ch, ~192.00 kbps avg
MediaInfo
Format : AVI
Format/Info : Audio Video Interleave
File size : 743 MiB
Duration : 1h 30mn
Overall bit rate : 1 142 Kbps
Writing application : VirtualDubMod 1.5.10.2 (build 2540/release)
Writing library : VirtualDubMod build 2540/release
Video #0
ID : 0
Format : MPEG-4 Visual
Format profile : Advanced Simple@L5
Format settings, BVOP : 2
Format settings, QPel : No
Format settings, GMC : No warppoints
Format settings, Matrix : Default (MPEG)
Codec ID : XVID
Codec ID/Hint : XviD
Duration : 1h 30mn
Bit rate : 941 Kbps
Width : 624 pixels
Height : 256 pixels
Display aspect ratio : 2.40:1
Frame rate : 23.976 fps
Color space : YUV
Chroma subsampling : 4:2:0
Bit depth : 8 bits
Scan type : Progressive
Compression mode : Lossy
Bits/(Pixel*Frame) : 0.246
Stream size : 612 MiB (82%)
Writing library : XviD 1.2.1 (UTC 2008-12-04)
Audio #1
ID : 1
Format : MPEG Audio
Format version : Version 1
Format profile : Layer 3
Mode : Joint stereo
Mode extension : MS Stereo
Codec ID : 55
Codec ID/Hint : MP3
Duration : 1h 30mn
Bit rate mode : Constant
Bit rate : 192 Kbps
Channel(s) : 2 channels
Sampling rate : 48.0 KHz
Compression mode : Lossy
Stream size : 125 MiB (17%)
Alignment : Aligned on interleaves
Interleave, duration : 42 ms (1.00 video frame)
Interleave, prload duration : 504 ms
Writing library : LAME3.95
Скриншот c названием фильма Скриншоты
Скачать

Скачать торрент! Фобия любви / Томящийся от любви / Love Phobia / Lian ai kong huang zheng (Роки Джо / Rocky Jo) [2011, Тайвань, комедия, романтика, DVDRip] DVO

Как скачивать? · Что такое торрент? · Рейтинг и ограничения

Сайт не распространяет и не хранит электронные версии произведений, а лишь предоставляет доступ к создаваемому пользователями каталогу ссылок на торрент-файлы, которые содержат только списки хеш-сумм

[Профиль] [ЛС]
Показать сообщения:    
Ответить на тему

Текущее время: Сегодня 15:55

Часовой пояс: GMT + 4



Вы не можете начинать темы
Вы не можете отвечать на сообщения
Вы не можете редактировать свои сообщения
Вы не можете удалять свои сообщения
Вы не можете голосовать в опросах
Вы не можете прикреплять файлы к сообщениям
Вы не можете скачивать файлы