Терминатор: Генезис / Terminator: Genisys (Алан Тейлор / Alan Taylor) [2015, США, фантастика, боевик, триллер, приключения, CamRip] Dub

Ответить на тему
 
Автор Сообщение

user ®

Стаж: 7 лет 7 месяцев

Сообщений: 20008

Пост Пост: #1 от 06-Июл-2015 16:24

[Цитировать]

Терминатор: Генезис / Terminator: Genisys- -Страна: США / Paramount Pictures, Skydance Productions
Жанр: фантастика, боевик, триллер, приключения
Год выпуска: 2015
Продолжительность: 01:56:51
Перевод: Профессиональный (дублированный)
Cубтитры: нет-Режиссер: Алан Тейлор / Alan Taylor-В ролях: Арнольд Шварценеггер, Джейсон Кларк, Эмилия Кларк, Джай Кортни, Дж.К. Симмонс, Дайо Окенийи, Мэтт Смит, Кортни Б. Вэнс, Ли Бён Хон, Майкл Глэдис-Описание: Когда Джон Коннор, лидер сопротивления, посылает сержанта Кайла Риза назад в 1984 год, чтобы защитить Сару Коннор и спасти будущее, неожиданный поворот событий создает разлом во времени. Сержант Риз оказывается в новой, незнакомой версии прошлого, где он встречает неожиданных союзников, в том числе Терминатора, новых опасных врагов, и новую миссию: изменить будущее…-Доп. информация: http://www.imdb.com/title/tt1340138/
http://www.kinopoisk.ru/film/436225/-Сэмпл: http://multi-up.com/1056547-Качество видео: CamRip
Формат видео: AVI
Видео: 720x336 (2.14:1), 29.970 fps, XviD MPEG-4 ~1646 kbps avg, 0.23 bit/pixel
Аудио: 48 kHz, AC3 Dolby Digital, 2/0 (L,R) ch, ~128 kbps
MediaInfo
D:\Torrents\3erminator.Genesis.2015.D.CAMRip.1.46GB.avi
General
Complete name : D:\Torrents\3erminator.Genesis.2015.D.CAMRip.1.46GB.avi
Format : AVI
Format/Info : Audio Video Interleave
File size : 1.46 GiB
Duration : 1h 56mn
Overall bit rate : 1 786 Kbps
Movie name : 3erminator.Genesis.2015.D.CAMRip
Director : Carl Gaus
Writing application : VirtualDubMod 1.5.10.3 | (build 2550/release)
Video #0
ID : 0
Format : MPEG-4 Visual
Format profile : Advanced Simple@L5
Format settings, BVOP : 2
Format settings, QPel : No
Format settings, GMC : No warppoints
Format settings, Matrix : Default (MPEG)
Muxing mode : Packed bitstream
Codec ID : XVID
Codec ID/Hint : XviD
Duration : 1h 56mn
Bit rate : 1 646 Kbps
Width : 720 pixels
Height : 336 pixels
Display aspect ratio : 2.143
Frame rate : 29.970 fps
Color space : YUV
Chroma subsampling : 4:2:0
Bit depth : 8 bits
Scan type : Progressive
Compression mode : Lossy
Bits/(Pixel*Frame) : 0.227
Stream size : 1.34 GiB (92%)
Writing library : XviD 1.2.1 (UTC 2008-12-04)
Audio #1
ID : 1
Format : AC-3
Format/Info : Audio Coding 3
Mode extension : CM (complete main)
Format settings, Endianness : Big
Codec ID : 2000
Duration : 1h 56mn
Bit rate mode : Constant
Bit rate : 128 Kbps
Channel count : 2 channels
Channel positions : Front: L R
Sampling rate : 48.0 KHz
Bit depth : 16 bits
Compression mode : Lossy
Stream size : 107 MiB (7%)
Alignment : Split accross interleaves
Interleave, duration : 33 ms (1.00 video frame)
Interleave, preload duration : 500 ms
Скриншот с названием фильма Скриншоты
Скачать

Скачать торрент!

Как скачивать? · Что такое торрент? · Рейтинг и ограничения

Сайт не распространяет и не хранит электронные версии произведений, а лишь предоставляет доступ к создаваемому пользователями каталогу ссылок на торрент-файлы, которые содержат только списки хеш-сумм

[Профиль] [ЛС]

Armani222

Стаж: 1 год 5 месяцев

Сообщений: 14

Пост Пост: #2 от 06-Июл-2015 18:12 (спустя 1 час 48 минут)

[Цитировать]

Спасибо. Что-то на раздаче нет никого... Качество похоже совсем никуда? Пожалуй лучше подождать релизов в более приличном качестве
[Профиль] [ЛС]
Показать сообщения:    
Ответить на тему

Текущее время: Сегодня 17:46

Часовой пояс: GMT + 4



Вы не можете начинать темы
Вы не можете отвечать на сообщения
Вы не можете редактировать свои сообщения
Вы не можете удалять свои сообщения
Вы не можете голосовать в опросах
Вы не можете прикреплять файлы к сообщениям
Вы не можете скачивать файлы