Дурман / Nasha (Амит Саксена / Amit Saxena) [2013, Индия, Триллер, эротика, мелодрама, HDRip] DVO (DeadSno & Den904)

Ответить на тему
 
Автор Сообщение

user ®

Стаж: 12 лет

Сообщений: 15092

Пост Пост: #1 от 06-Июл-2015 00:57

[Цитировать]

Дурман / Nasha
Страна: Индия
Жанр: Триллер, эротика, мелодрама
Год выпуска: 2013
Продолжительность: 01:56:04
Перевод: Любительский (двухголосый закадровый) DeadSno & Den904
Cубтитры: нет
Режиссер: Амит Саксена / Amit Saxena
В ролях: Шивам Патиль, Пунам Пандей, Ранбир Чакма, Мохит Чаухан, Шитал Сингх, Рохан Кхурана
Описание: 18-летний Сахил становится одержимым безумной страстью к своей учительнице - весьма привлекательной и молодой женщине Аните. Не поддаваясь уговорам друзей бросить эту затею, он все больше и больше желает поближе подобраться к объекту своего желания и тем самым, всё глубже погружается в её дурман, не догадываясь, к чему это может привести...
Доп. информация: Исходник BDRip (1080p) (СПАСИБО! jasinpapa)
Перевод и редакция: Honey&Haseena (Спасибо!)
Озвучка: DeadSno & Den904 (Спасибо!)
Фильм переведён и озвучен по заказу Лили Ибрагимовой (Спасибо!)
Сэмпл: http://multi-up.com/1057166
Качество видео: HDRip
Формат видео: AVI
Видео: XviD build 50, 720x304 (2.37:1), 24 fps, 1599 kbps avg
Аудио: AC3 Dolby Digital, 48 kHz, 2/0 (L,R) ch, 192 kbps
MediaInfo
General
Complete name : F:\Durman.2013.XviD.HDRip-Dego.avi
Format : AVI
Format/Info : Audio Video Interleave
File size : 1.46 GiB
Duration : 1h 56mn
Overall bit rate : 1 801 Kbps
Writing application : VirtualDubMod 1.5.10.2 (build 2540/release)
Writing library : VirtualDubMod build 2540/release
Video
ID : 0
Format : MPEG-4 Visual
Format profile : AdvancedSimple@L5
Format settings, BVOP : Yes
Format settings, QPel : No
Format settings, GMC : No warppoints
Format settings, Matrix : Custom
Codec ID : XVID
Codec ID/Hint : XviD
Duration : 1h 56mn
Bit rate : 1 600 Kbps
Width : 720 pixels
Height : 304 pixels
Display aspect ratio : 2.35
Frame rate : 24.000 fps
Resolution : 24 bits
Colorimetry : 4:2:0
Scan type : Progressive
Bits/(Pixel*Frame) : 0.305
Stream size : 1.30 GiB (89%)
Writing library : XviD 1.2.1 (UTC 2008-12-04)
Audio
ID : 1
Format : AC-3
Format/Info : Audio Coding 3
Codec ID : 2000
Duration : 1h 56mn
Bit rate mode : Constant
Bit rate : 192 Kbps
Channel(s) : 2 channels
Channel positions : L R
Sampling rate : 48.0 KHz
Stream size : 159 MiB (11%)
Alignment : Split accross interleaves
Interleave, duration : 42 ms (1.00 video frame)
Interleave, preload duration : 500 ms
Скриншот c названием фильма Скриншоты
Скачать

Скачать торрент! Дурман / Nasha (Амит Саксена / Amit Saxena) [2013, Индия, Триллер, эротика, мелодрама, HDRip] DVO (DeadSno & Den904)

Как скачивать? · Что такое торрент? · Рейтинг и ограничения

Сайт не распространяет и не хранит электронные версии произведений, а лишь предоставляет доступ к создаваемому пользователями каталогу ссылок на торрент-файлы, которые содержат только списки хеш-сумм

[Профиль] [ЛС]
Показать сообщения:    
Ответить на тему

Текущее время: Сегодня 15:15

Часовой пояс: GMT + 4



Вы не можете начинать темы
Вы не можете отвечать на сообщения
Вы не можете редактировать свои сообщения
Вы не можете удалять свои сообщения
Вы не можете голосовать в опросах
Вы не можете прикреплять файлы к сообщениям
Вы не можете скачивать файлы