Мэгги / Maggie (Генри Хобсон / Henry Hobson) [2015, США, Драма, триллер, ужасы, BDRip] MVO + Original (Eng) + Sub (Rus, Eng)

Ответить на тему
 
Автор Сообщение

user ®

Стаж: 7 лет 7 месяцев

Сообщений: 20008

Пост Пост: #1 от 06-Июл-2015 00:57

[Цитировать]

Мэгги / Maggie- Год выпуска: 2015
Выпущено: США, Швейцария / Lionsgate
Жанр: драма, триллер, ужасы
Продолжительность: 01:35:03
Перевод: Любительский (многоголосый закадровый) |ViruseProject|
Cубтитры: Русские (ViruseProject), Английские (внешние .srt*)
Оригинальная аудиодорожка: Английская-Режиссер:
Генри Хобсон / Henry Hobson-В ролях:
Арнольд Шварценеггер (Wade Vogel), Эбигейл Бреслин (Maggie Vogel), Джоэли Ричардсон (Caroline), Дуглас М. Гриффин (Ray), Дж.Д. Эвермор (Holt), Рэйчел Уитман Гровс (Bonnie), Джоди Мур (Dr. Vern Kaplan), Брайс Ромеро (Trent), Рэден Грир (Allie), Эйден Флауэрс (Bobby)-Описание:
Девочка-подросток Мэгги заражается болезнью, медленно превращающей инфицированных в зомби. Правительство организует карантин для инфицированных, где их помещают в изоляцию. Её любящий отец не готов помещать её в карантин, и она живёт вместе с ним.-Релиз групп [url=http://***/forum/viewtopic.php?t=1677970] [/url] | | IMDB | КиноПоиск | Сэмпл |-Качество: BDRip [BDRemux | 1080p | Кинозал]
Формат: AVI
Видео: 720x304 (2.37:1), 23.976 fps, XviD build 73 ~1800 kbps avg, 0.34 bit/pixel
Аудио #1: 48 kHz, AC3 Dolby Digital, 3/2 (L,C,R,l,r) + LFE ch, ~384.00 kbps avg (RUS)
Аудио #2: 48 kHz, AC3 Dolby Digital, 3/2 (L,C,R,l,r) + LFE ch, ~384.00 kbps avg (ENG) отдельно
-Скриншоты MediaInfo
General
Complete name                            : D:\Maggie_2015_BDRip_MVO_by_Dalemake.avi
Format                                   : AVI
Format/Info                              : Audio Video Interleave
File size                                : 1.46 GiB
Duration                                 : 1h 35mn
Overall bit rate                         : 2 194 Kbps
Writing application                      : VirtualDubMod 1.5.10.3 | www.virtualdub-fr.org || (build 2550/release)
Writing library                          : VirtualDubMod build 2550/release
Video
ID                                       : 0
Format                                   : MPEG-4 Visual
Format profile                           : Advanced Simple@L5
Format settings, BVOP                    : 1
Format settings, QPel                    : No
Format settings, GMC                     : No warppoints
Format settings, Matrix                  : Custom
Codec ID                                 : XVID
Codec ID/Hint                            : XviD
Duration                                 : 1h 35mn
Bit rate                                 : 1 801 Kbps
Width                                    : 720 pixels
Height                                   : 304 pixels
Display aspect ratio                     : 2.35:1
Frame rate                               : 23.976 fps
Color space                              : YUV
Chroma subsampling                       : 4:2:0
Bit depth                                : 8 bits
Scan type                                : Progressive
Compression mode                         : Lossy
Bits/(Pixel*Frame)                       : 0.343
Stream size                              : 1.20 GiB (82%)
Writing library                          : XviD 73
Audio
ID                                       : 1
Format                                   : AC-3
Format/Info                              : Audio Coding 3
Mode extension                           : CM (complete main)
Format settings, Endianness              : Big
Codec ID                                 : 2000
Duration                                 : 1h 35mn
Bit rate mode                            : Constant
Bit rate                                 : 384 Kbps
Channel(s)                               : 6 channels
Channel positions                        : Front: L C R, Side: L R, LFE
Sampling rate                            : 48.0 KHz
Bit depth                                : 16 bits
Compression mode                         : Lossy
Stream size                              : 261 MiB (18%)
Alignment                                : Split accross interleaves
Interleave, duration                     : 42 ms (1.00 video frame)
Interleave, preload duration             : 500 ms
Сравнение
[url=http://***/forum/viewtopic.php?t=5029299]http://***/forum/viewtopic.php?t=5029299[/url]
http://screenshotcomparison.com/comparison/133842
+ шестиканальный звук-[url=http://***/forum/viewtopic.php?t=5007606]http://***/forum/viewtopic.php?t=5007606[/url]
Убитый звук, статус #, нужен ли вообще релиз...
-
Скачать

Скачать торрент!

Как скачивать? · Что такое торрент? · Рейтинг и ограничения

Сайт не распространяет и не хранит электронные версии произведений, а лишь предоставляет доступ к создаваемому пользователями каталогу ссылок на торрент-файлы, которые содержат только списки хеш-сумм

[Профиль] [ЛС]
Показать сообщения:    
Ответить на тему

Текущее время: Сегодня 02:16

Часовой пояс: GMT + 4



Вы не можете начинать темы
Вы не можете отвечать на сообщения
Вы не можете редактировать свои сообщения
Вы не можете удалять свои сообщения
Вы не можете голосовать в опросах
Вы не можете прикреплять файлы к сообщениям
Вы не можете скачивать файлы