Скольжение (Антон Розенберг) [2015, Триллер, WEB-DLRip]

Ответить на тему
 
Автор Сообщение

user ®

Стаж: 7 лет 7 месяцев

Сообщений: 20008

Пост Пост: #1 от 05-Июл-2015 21:51

[Цитировать]

Скольжение- Год выхода: 2015
Выпущено: Россия / Blackbriar production
Жанр: триллер
Продолжительность: 01:49:24-Режиссёр:
Антон Розенберг-В ролях:
Владислав Абашин, Алексей Игнатов, Михаил Солодко, Владимир Лукьянчиков, Наталья Швец, Ольга Смирнова, Александр Борисов, Николай Козак, Мария Слидовкер, Алексей Шкатов-Описание:
Главный герой с необычным именем-прозвищем Пепл — оперативный сотрудник, однако и он, и вся группа, к которой он принадлежит, типичные, погрязшие в криминальной деятельности, «оборотни в погонах». В отлаженной преступной схеме этой сработавшейся команды начинают возникать сбои, и становится очевидным, что в их рядах есть осведомитель.
Обозначенная сюжетная канва не является единственным содержанием фильма — в оболочке криминальной драмы авторы рассказывают глубокую человеческую историю главного героя. Одновременно с описанными событиями он попадает в ситуацию, поставившую его на край реальной гибели, и это впервые заставляет Пепла начать осмысление собственной жизни и того, чем он занимается. Его рефлексия осложняется запутанными, эмоционально тяжелыми отношениями с женой. В результате он больше не может быть прежним, команда чувствует это, и подозрения падают именно на Пепла. Коллеги решают, что он и есть информатор ФСБ. Бывшие соратники превращаются во врагов, слаженный механизм группы работает теперь против Пепла. Он становится объектом безжалостного преследования.
Ситуация раскручивается с неконтролируемой скоростью, она необратимо приобретает все более жесткую форму и безысходный характер. Скольжение Пепла становится все быстрее, теперь на кону уже гораздо большее, чем собственная жизнь, и ему придется решать, что для него действительно важно и за что стоит бороться до самого конца.-Релиз групп [url=http://***/forum/viewtopic.php?t=1677970] [/url] | | КиноПоиск | Сэмпл |-Качество: WEB-DLRip [WEB-DL | 720p | Кинозал]
Формат: AVI
Видео: 688x288 (2.39:1), 24.000 fps, XviD build 73 ~1514 kbps avg, 0.32 bit/pixel
Аудио: 48 kHz, AC3 Dolby Digital, 3/2 (L,C,R,l,r) + LFE ch, ~384.00 kbps avg
-Скриншоты MediaInfo
General
Complete name                            : D:\Skolzhenie_2015_WEB-DLRip_by_Dalemake.avi
Format                                   : AVI
Format/Info                              : Audio Video Interleave
File size                                : 1.46 GiB
Duration                                 : 1h 49mn
Overall bit rate                         : 1 908 Kbps
Writing application                      : VirtualDubMod 1.5.10.3 | www.virtualdub-fr.org || (build 2550/release)
Writing library                          : VirtualDubMod build 2550/release
Video
ID                                       : 0
Format                                   : MPEG-4 Visual
Format profile                           : Advanced Simple@L5
Format settings, BVOP                    : 1
Format settings, QPel                    : No
Format settings, GMC                     : No warppoints
Format settings, Matrix                  : Custom
Codec ID                                 : XVID
Codec ID/Hint                            : XviD
Duration                                 : 1h 49mn
Bit rate                                 : 1 514 Kbps
Width                                    : 688 pixels
Height                                   : 288 pixels
Display aspect ratio                     : 2.40:1
Frame rate                               : 24.000 fps
Color space                              : YUV
Chroma subsampling                       : 4:2:0
Bit depth                                : 8 bits
Scan type                                : Progressive
Compression mode                         : Lossy
Bits/(Pixel*Frame)                       : 0.318
Stream size                              : 1.16 GiB (79%)
Writing library                          : XviD 73
Audio
ID                                       : 1
Format                                   : AC-3
Format/Info                              : Audio Coding 3
Mode extension                           : CM (complete main)
Format settings, Endianness              : Big
Codec ID                                 : 2000
Duration                                 : 1h 49mn
Bit rate mode                            : Constant
Bit rate                                 : 384 Kbps
Channel(s)                               : 6 channels
Channel positions                        : Front: L C R, Side: L R, LFE
Sampling rate                            : 48.0 KHz
Bit depth                                : 16 bits
Compression mode                         : Lossy
Stream size                              : 301 MiB (20%)
Alignment                                : Split accross interleaves
Interleave, duration                     : 42 ms (1.00 video frame)
Interleave, preload duration             : 500 ms
-
Скачать

Скачать торрент!

Как скачивать? · Что такое торрент? · Рейтинг и ограничения

Сайт не распространяет и не хранит электронные версии произведений, а лишь предоставляет доступ к создаваемому пользователями каталогу ссылок на торрент-файлы, которые содержат только списки хеш-сумм

[Профиль] [ЛС]
Показать сообщения:    
Ответить на тему

Текущее время: Сегодня 17:24

Часовой пояс: GMT + 4



Вы не можете начинать темы
Вы не можете отвечать на сообщения
Вы не можете редактировать свои сообщения
Вы не можете удалять свои сообщения
Вы не можете голосовать в опросах
Вы не можете прикреплять файлы к сообщениям
Вы не можете скачивать файлы